<?xml version="1.0" standalone="no"?>
<!DOCTYPE svg PUBLIC "-//W3C//DTD SVG 1.1//EN" "http://www.w3.org/Graphics/SVG/1.1/DTD/svg11.dtd" >
<svg>
<metadata>
Created by FontForge 20110222 at Tue Jan 14 20:06:34 2014
 By Orthosie Webhosting
(c) 2009 Microsoft Corporation. All Rights Reserved.
</metadata>
<defs>
<font id="SegoeUISymbolRegular" horiz-adv-x="1543" >
  <font-face 
    font-family="SegoeUISymbolRegular"
    font-weight="400"
    font-stretch="normal"
    units-per-em="2048"
    panose-1="2 11 5 2 4 2 4 2 2 3"
    ascent="1638"
    descent="-410"
    x-height="1024"
    cap-height="1434"
    bbox="-795 -514 3196 1948"
    underline-thickness="119"
    underline-position="-119"
    unicode-range="U+000D-1D70E"
  />
<missing-glyph horiz-adv-x="1322" 
d="M166 0v1398h990v-1398h-990zM314 148h694v1102h-694v-1102z" />
    <glyph glyph-name=".notdef" horiz-adv-x="1322" 
d="M166 0v1398h990v-1398h-990zM314 148h694v1102h-694v-1102z" />
    <glyph glyph-name=".null" horiz-adv-x="0" 
 />
    <glyph glyph-name="nonmarkingreturn" horiz-adv-x="199" 
 />
    <glyph glyph-name="null" unicode="&#xd;" horiz-adv-x="0" 
 />
    <glyph glyph-name="space" unicode=" " horiz-adv-x="561" 
 />
    <glyph glyph-name="exclam" unicode="!" horiz-adv-x="582" 
d="M375 1434l-19 -1030h-135l-18 1030h172zM291 -18q-46 0 -78.5 32t-32.5 78t32.5 78.5t78.5 32.5q45 0 78 -32.5t33 -78.5t-33 -78t-78 -32z" />
    <glyph glyph-name="quotedbl" unicode="&#x22;" horiz-adv-x="803" 
d="M323 1434l-30 -447h-115l-30 447h175zM655 1434l-30 -447h-115l-30 447h175z" />
    <glyph glyph-name="numbersign" unicode="#" horiz-adv-x="1210" 
d="M1166 1032l-23 -106h-261l-63 -300h281l-27 -106h-275l-88 -397h-126l86 397h-250l-84 -397h-125l84 397h-262l20 106h265l61 300h-277l21 106h277l84 402h126l-84 -402h252l86 402h123l-84 -402h263zM758 926h-252l-66 -300h254z" />
    <glyph glyph-name="dollar" unicode="$" horiz-adv-x="1104" 
d="M616 8v-217h-104v209q-213 0 -346 86v174q58 -51 158.5 -85.5t187.5 -34.5v512q-220 106 -285 195.5t-65 211.5q0 145 99 250.5t251 126.5v180h104v-176q196 -6 271 -56v-170q-102 80 -271 86v-528q208 -99 284.5 -191.5t76.5 -210.5q0 -142 -95.5 -238.5t-265.5 -123.5z
M512 828v466q-84 -17 -133 -74.5t-49 -139.5q0 -86 40 -141t142 -111zM616 600v-452q193 42 193 208q0 138 -193 244z" />
    <glyph glyph-name="percent" unicode="%" horiz-adv-x="1676" 
d="M404 715q-148 0 -236 97.5t-88 260.5q0 178 93 280.5t251 102.5q153 0 237.5 -95t84.5 -267t-94.5 -275.5t-247.5 -103.5zM418 1346q-95 0 -150 -70.5t-55 -193.5q0 -121 54 -188.5t147 -67.5q94 0 147 70t53 194q0 121 -52.5 188.5t-143.5 67.5zM1364 1434l-920 -1444
h-143l919 1444h144zM1258 -22q-148 0 -236 98t-88 260q0 178 94 281.5t250 103.5q152 0 237 -96t85 -269q0 -171 -94.5 -274.5t-247.5 -103.5zM1272 608q-96 0 -150.5 -70t-54.5 -194q0 -119 54 -186.5t147 -67.5q94 0 147 70.5t53 193.5q0 122 -52.5 188t-143.5 66z" />
    <glyph glyph-name="ampersand" unicode="&#x26;" horiz-adv-x="1639" 
d="M1445 -23q-57 0 -100.5 15.5t-80.5 44t-71.5 69.5t-72.5 93q-40 -43 -92.5 -83t-116.5 -71t-140 -49.5t-165 -18.5q-108 0 -198 27t-154 79.5t-99.5 129.5t-35.5 177q0 153 87 261.5t246 177.5q-30 22 -60 51.5t-53.5 67t-38 83t-14.5 99.5q0 79 28.5 140t78.5 103
t118 63.5t147 21.5q78 0 142.5 -21.5t111 -61.5t72.5 -96t26 -125q0 -120 -68.5 -199.5t-205.5 -135.5q69 -27 125 -66t103.5 -87t88.5 -103t81 -114q81 113 122 249t41 285q0 38 -4.5 71.5t-12.5 66.5h159q8 -33 9.5 -62.5t3.5 -70.5q0 -91 -19 -183t-51 -178.5
t-74.5 -164.5t-89.5 -143q35 -48 64 -83.5t58.5 -59.5t61 -35.5t71.5 -11.5q30 0 61 8t64 20v-152q-36 -14 -75.5 -21t-77.5 -7zM606 119q76 0 140 16.5t118 44t98 64t80 76.5q-61 95 -112.5 162.5t-104 116.5t-112 84t-137.5 65q-63 -25 -116 -55.5t-91.5 -72t-60.5 -96.5
t-22 -129q0 -68 25 -120t68.5 -86.5t101.5 -52t125 -17.5zM856 1140q0 50 -18.5 85t-47 58t-63.5 33.5t-69 10.5q-98 0 -156.5 -53t-59.5 -144q0 -41 12.5 -77t35 -67t52.5 -55t64 -41q126 44 188 102.5t62 147.5z" />
    <glyph glyph-name="quotesingle" unicode="'" horiz-adv-x="471" 
d="M323 1434l-30 -447h-115l-30 447h175z" />
    <glyph glyph-name="parenleft" unicode="(" horiz-adv-x="618" 
d="M596 -326h-146q-310 354 -310 873q0 521 310 887h148q-314 -380 -314 -885q0 -501 312 -875z" />
    <glyph glyph-name="parenright" unicode=")" horiz-adv-x="618" 
d="M170 -326h-146q312 374 312 875q0 505 -314 885h148q312 -366 312 -887q0 -519 -312 -873z" />
    <glyph glyph-name="asterisk" unicode="*" horiz-adv-x="854" 
d="M780 1104l-274 -56l190 -243l-110 -76l-156 265l-158 -265l-110 76l190 243l-276 56l45 125l262 -99l-23 304h138l-23 -304l263 99z" />
    <glyph glyph-name="plus" unicode="+" horiz-adv-x="1401" 
d="M1172 530h-404v-403h-133v403h-403v134h403v403h133v-403h404v-134z" />
    <glyph glyph-name="comma" unicode="," horiz-adv-x="444" 
d="M316 228l-160 -492h-117l117 492h160z" />
    <glyph glyph-name="hyphen" unicode="-" horiz-adv-x="819" 
d="M690 506h-546v129h546v-129z" />
    <glyph glyph-name="period" unicode="." horiz-adv-x="444" 
d="M223 -22q-46 0 -78.5 33t-32.5 79t32.5 79.5t78.5 33.5q47 0 80 -33.5t33 -79.5t-33 -79t-80 -33z" />
    <glyph glyph-name="slash" unicode="/" horiz-adv-x="798" 
d="M813 1434l-688 -1672h-153l686 1672h155z" />
    <glyph glyph-name="zero" unicode="0" horiz-adv-x="1104" 
d="M538 -24q-213 0 -332.5 183t-119.5 529q0 380 124.5 575t359.5 195q450 0 450 -735q0 -364 -127 -555.5t-355 -191.5zM561 1319q-307 0 -307 -623q0 -582 301 -582q297 0 297 592q0 613 -291 613z" />
    <glyph glyph-name="one" unicode="1" horiz-adv-x="1104" 
d="M987 0h-811v144h324v1114l-332 -99v156l496 151v-1322h323v-144z" />
    <glyph glyph-name="two" unicode="2" horiz-adv-x="1104" 
d="M960 0h-864v146l418 419q160 160 228.5 266.5t68.5 227.5q0 124 -71 192t-202 68q-192 0 -368 -164v172q168 131 391 131q192 0 302 -104t110 -279q0 -138 -76 -269.5t-273 -326.5l-331 -327v-4h667v-148z" />
    <glyph glyph-name="three" unicode="3" horiz-adv-x="1104" 
d="M131 53v177q147 -116 332 -116q150 0 239.5 75t89.5 202q0 281 -399 281h-119v139h113q355 0 355 264q0 244 -271 244q-151 0 -285 -103v160q138 82 326 82q181 0 289.5 -96t108.5 -246q0 -283 -288 -364v-4q155 -15 246.5 -108.5t91.5 -233.5q0 -193 -138.5 -311.5
t-365.5 -118.5q-204 0 -325 77z" />
    <glyph glyph-name="four" unicode="4" horiz-adv-x="1104" 
d="M1034 381h-184v-381h-162v381h-674v107l638 946h198v-920h184v-133zM688 514v620q0 66 4 148h-4q-14 -36 -55 -110l-441 -658h496z" />
    <glyph glyph-name="five" unicode="5" horiz-adv-x="1104" 
d="M164 35v174q147 -95 299 -95t245 86t93 228q0 141 -95 220t-272 79q-60 0 -225 -12v719h694v-148h-539v-420q66 4 122 4q230 0 356 -115.5t126 -316.5q0 -208 -135.5 -335t-371.5 -127q-199 0 -297 59z" />
    <glyph glyph-name="six" unicode="6" horiz-adv-x="1104" 
d="M934 1417v-155q-111 57 -234 57q-191 0 -305.5 -170t-114.5 -455h4q100 203 328 203q188 0 299 -120.5t111 -322.5q0 -211 -127 -344.5t-323 -133.5q-216 0 -339 172t-123 483q0 377 161 602t425 225q150 0 238 -41zM576 758q-127 0 -206 -86t-79 -203q0 -147 78.5 -251
t208.5 -104q124 0 200 90.5t76 229.5q0 152 -73 238t-205 86z" />
    <glyph glyph-name="seven" unicode="7" horiz-adv-x="1104" 
d="M1010 1382l-568 -1382h-170l537 1286h-723v148h924v-52z" />
    <glyph glyph-name="eight" unicode="8" horiz-adv-x="1104" 
d="M410 752v4q-258 120 -258 348q0 155 118 254.5t304 99.5q168 0 276 -93t108 -239q0 -238 -266 -370v-4q314 -112 314 -388q0 -178 -128 -283t-356 -105q-184 0 -303 104t-119 270q0 276 310 402zM790 1106q0 99 -62 156t-169 57q-100 0 -169.5 -59.5t-69.5 -151.5
q0 -187 233 -282q237 98 237 280zM542 674q-274 -109 -274 -316q0 -107 79.5 -175.5t209.5 -68.5q124 0 202.5 67.5t78.5 170.5q0 216 -296 322z" />
    <glyph glyph-name="nine" unicode="9" horiz-adv-x="1104" 
d="M172 24v158q120 -68 254 -68q195 0 303.5 157t108.5 446q-2 -1 -4 0q-92 -185 -320 -185q-184 0 -302 125t-118 322q0 210 129.5 344.5t331.5 134.5q212 0 330.5 -167.5t118.5 -487.5q0 -397 -154 -612t-428 -215q-144 0 -250 48zM540 1319q-119 0 -198.5 -89.5
t-79.5 -227.5q0 -151 78 -237.5t211 -86.5q116 0 196.5 79t80.5 193q0 163 -80 266t-208 103z" />
    <glyph glyph-name="colon" unicode=":" horiz-adv-x="444" 
d="M223 824q-46 0 -78.5 33t-32.5 79t32.5 78t78.5 32q47 0 80 -32t33 -78t-33 -79t-80 -33zM223 -22q-46 0 -78.5 33t-32.5 79t32.5 79.5t78.5 33.5q47 0 80 -33.5t33 -79.5t-33 -79t-80 -33z" />
    <glyph glyph-name="semicolon" unicode=";" horiz-adv-x="444" 
d="M226 824q-47 0 -79.5 33t-32.5 79t32.5 78t79.5 32q46 0 79 -32t33 -78t-33 -79t-79 -33zM316 228l-160 -492h-117l117 492h160z" />
    <glyph glyph-name="less" unicode="&#x3c;" horiz-adv-x="1401" 
d="M1132 127l-860 432v59l860 482v-150l-642 -356v-4l642 -314v-149z" />
    <glyph glyph-name="equal" unicode="=" horiz-adv-x="1401" 
d="M1172 744h-940v132h940v-132zM1172 318h-940v132h940v-132z" />
    <glyph glyph-name="greater" unicode="&#x3e;" horiz-adv-x="1401" 
d="M1132 559l-860 -432v149l644 312v6l-644 356v150l860 -482v-59z" />
    <glyph glyph-name="question" unicode="?" horiz-adv-x="918" 
d="M335 398q-9 26 -16 67.5t-7 82.5q0 64 25.5 115.5t63.5 96.5t83 86.5t83 84t63.5 89t25.5 102.5q0 48 -18.5 85t-50.5 62t-74 37.5t-89 12.5q-169 0 -293 -133v176q153 96 317 96q76 0 143 -20t117.5 -59.5t79.5 -98.5t29 -137q0 -74 -26 -132t-65.5 -106.5t-85.5 -90.5
t-85.5 -83.5t-65.5 -86.5t-26 -99q0 -46 11 -83.5t22 -63.5h-161zM425 -18q-44 0 -78 32q-33 32 -33 78q0 47 33 78q33 33 78 33t78 -33q33 -31 33 -78q0 -46 -33 -78q-34 -32 -78 -32z" />
    <glyph glyph-name="at" unicode="@" horiz-adv-x="1956" 
d="M1164 420h-5q-73 -238 -287 -238q-137 0 -220.5 101t-83.5 272q0 226 115.5 375.5t303.5 149.5q72 0 128.5 -37t72.5 -93h4q2 28 10 115h125q-47 -551 -47 -561q0 -207 119 -207q108 0 179.5 117t71.5 303q0 275 -174 449t-482 174q-297 0 -491 -208t-194 -520
q0 -307 184.5 -495.5t497.5 -188.5q247 0 422 82v-124q-173 -74 -432 -74q-364 0 -586.5 219.5t-222.5 574.5q0 366 233.5 607t596.5 241q340 0 563 -202t223 -527q0 -238 -117.5 -390.5t-286.5 -152.5q-219 0 -220 238zM985 964q-124 0 -200.5 -118t-76.5 -293
q0 -118 51.5 -186t137.5 -68q124 0 196.5 123.5t72.5 327.5q0 214 -181 214z" />
    <glyph glyph-name="A" unicode="A" horiz-adv-x="1321" 
d="M1298 0h-186l-152 402h-608l-143 -402h-187l550 1434h174zM905 553l-225 611q-11 30 -22 96h-4q-10 -61 -23 -96l-223 -611h497z" />
    <glyph glyph-name="B" unicode="B" horiz-adv-x="1174" 
d="M188 0v1434h408q186 0 295 -91t109 -237q0 -122 -66 -212t-182 -128v-4q145 -17 232 -109.5t87 -240.5q0 -184 -132 -298t-333 -114h-418zM356 1282v-463h172q138 0 217 66.5t79 187.5q0 209 -275 209h-193zM356 668v-516h228q148 0 229.5 70t81.5 192q0 254 -346 254
h-193z" />
    <glyph glyph-name="C" unicode="C" horiz-adv-x="1268" 
d="M1164 60q-159 -84 -396 -84q-306 0 -490 197t-184 517q0 344 207 556t525 212q204 0 338 -59v-179q-154 86 -340 86q-247 0 -400.5 -165t-153.5 -441q0 -262 143.5 -417.5t376.5 -155.5q216 0 374 96v-163z" />
    <glyph glyph-name="D" unicode="D" horiz-adv-x="1436" 
d="M188 0v1434h396q758 0 758 -699q0 -332 -210.5 -533.5t-563.5 -201.5h-380zM356 1282v-1130h214q282 0 439 151t157 428q0 551 -586 551h-224z" />
    <glyph glyph-name="E" unicode="E" horiz-adv-x="1036" 
d="M948 0h-760v1434h728v-152h-560v-477h518v-151h-518v-502h592v-152z" />
    <glyph glyph-name="F" unicode="F" horiz-adv-x="1000" 
d="M916 1282h-560v-496h518v-151h-518v-635h-168v1434h728v-152z" />
    <glyph glyph-name="G" unicode="G" horiz-adv-x="1405" 
d="M1260 98q-216 -122 -480 -122q-307 0 -496.5 198t-189.5 524q0 333 210.5 546.5t533.5 213.5q234 0 393 -76v-186q-174 110 -412 110q-241 0 -395 -166t-154 -430q0 -272 143 -427.5t388 -155.5q168 0 291 67v402h-314v152h482v-650z" />
    <glyph glyph-name="H" unicode="H" horiz-adv-x="1454" 
d="M1266 0h-168v654h-742v-654h-168v1434h168v-629h742v629h168v-1434z" />
    <glyph glyph-name="I" unicode="I" horiz-adv-x="545" 
d="M496 1434v-144h-140v-1146h140v-144h-448v144h140v1146h-140v144h448z" />
    <glyph glyph-name="J" unicode="J" horiz-adv-x="731" 
d="M555 514q0 -255 -108 -396.5t-289 -141.5q-84 0 -138 24v166q54 -39 140 -39q227 0 227 385v922h168v-920z" />
    <glyph glyph-name="K" unicode="K" horiz-adv-x="1188" 
d="M1186 0h-234l-554 656q-31 37 -38 50h-4v-706h-168v1434h168v-674h4q14 22 38 49l536 625h209l-615 -688z" />
    <glyph glyph-name="L" unicode="L" horiz-adv-x="964" 
d="M932 0h-744v1434h168v-1282h576v-152z" />
    <glyph glyph-name="M" unicode="M" horiz-adv-x="1839" 
d="M1650 0h-167v962q0 114 14 279h-4q-24 -97 -43 -139l-490 -1102h-82l-489 1094q-21 48 -43 147h-4q8 -86 8 -281v-960h-162v1434h222l440 -1000q51 -115 66 -172h6q43 118 69 176l449 996h210v-1434z" />
    <glyph glyph-name="N" unicode="N" horiz-adv-x="1532" 
d="M1344 0h-206l-738 1143q-28 43 -46 90h-6q8 -46 8 -197v-1036h-168v1434h218l718 -1125q45 -70 58 -96h4q-10 62 -10 211v1010h168v-1434z" />
    <glyph glyph-name="O" unicode="O" horiz-adv-x="1544" 
d="M766 -24q-305 0 -488.5 201t-183.5 523q0 346 187 552t509 206q297 0 478.5 -200t181.5 -523q0 -351 -186 -555t-498 -204zM778 1306q-226 0 -367 -163t-141 -428t137.5 -426.5t358.5 -161.5q236 0 372 154t136 431q0 284 -132 439t-364 155z" />
    <glyph glyph-name="P" unicode="P" horiz-adv-x="1147" 
d="M356 542v-542h-168v1434h394q230 0 356.5 -112t126.5 -316t-140.5 -334t-379.5 -130h-189zM356 1282v-588h176q174 0 265.5 79.5t91.5 224.5q0 284 -336 284h-197z" />
    <glyph glyph-name="Q" unicode="Q" horiz-adv-x="1544" 
d="M756 -24q-64 0 -130 12.5t-128 38t-118.5 63t-102.5 87.5q-183 200 -183 523q0 347 186 552q188 206 514 206q292 0 474 -200t182 -523q0 -136 -30.5 -256.5t-92.5 -217.5t-156 -164.5t-222 -96.5q52 -56 97.5 -99t91 -72.5t94.5 -44.5t108 -15q16 0 35 1.5t38.5 5
t37.5 8t33 10.5v-162q-16 -5 -36 -8.5t-40.5 -6t-40.5 -4t-37 -1.5q-96 0 -172.5 28.5t-143 78t-128.5 115.5t-130 142zM778 1306q-226 0 -367 -163t-141 -428q0 -264 137 -427q138 -161 359 -161q236 0 372 154t136 431q0 285 -132 439q-132 155 -364 155z" />
    <glyph glyph-name="R" unicode="R" horiz-adv-x="1225" 
d="M1216 0h-200l-240 402q-33 56 -64 95.5t-63.5 64.5t-70 36.5t-84.5 11.5h-138v-610h-168v1434h428q94 0 173.5 -23.5t138 -71.5t91.5 -119.5t33 -167.5q0 -75 -22.5 -137.5t-64 -111.5t-100 -83.5t-131.5 -53.5v-4q36 -16 62.5 -36.5t50.5 -48.5t47.5 -63.5t52.5 -82.5z
M356 1282v-520h228q63 0 116.5 19t92.5 54.5t61 87t22 115.5q0 115 -74.5 179.5t-215.5 64.5h-230z" />
    <glyph glyph-name="S" unicode="S" horiz-adv-x="1088" 
d="M121 58v198q34 -30 81.5 -54t100 -40.5t105.5 -25.5t98 -9q155 0 231.5 57.5t76.5 165.5q0 58 -25.5 101t-70.5 78.5t-106.5 68t-132.5 68.5q-75 38 -140 77t-113 86t-75.5 106.5t-27.5 139.5q0 98 43 170.5t113 119.5t159.5 70t182.5 23q212 0 309 -51v-189
q-127 88 -326 88q-55 0 -110 -11.5t-98 -37.5t-70 -67t-27 -100q0 -55 20.5 -95t60.5 -73t97.5 -64t132.5 -68q77 -38 146 -80t121 -93t82.5 -113t30.5 -142q0 -106 -41.5 -179.5t-112 -119.5t-162.5 -66.5t-194 -20.5q-34 0 -84 5.5t-102 16t-98.5 26t-74.5 34.5z" />
    <glyph glyph-name="T" unicode="T" horiz-adv-x="1073" 
d="M1036 1282h-414v-1282h-168v1282h-413v152h995v-152z" />
    <glyph glyph-name="U" unicode="U" horiz-adv-x="1407" 
d="M1237 580q0 -604 -545 -604q-522 0 -522 581v877h168v-866q0 -441 372 -441q359 0 359 426v881h168v-854z" />
    <glyph glyph-name="V" unicode="V" horiz-adv-x="1272" 
d="M1254 1434l-531 -1434h-185l-520 1434h187l397 -1137q19 -55 29 -127h4q8 60 33 129l405 1135h181z" />
    <glyph glyph-name="W" unicode="W" horiz-adv-x="1913" 
d="M1888 1434l-405 -1434h-197l-295 1048q-19 67 -23 146h-4q-6 -74 -26 -144l-297 -1050h-195l-420 1434h185l305 -1100q19 -69 24 -144h5q5 53 31 144l317 1100h161l304 -1108q16 -57 24 -134h4q4 52 27 138l293 1104h182z" />
    <glyph glyph-name="X" unicode="X" horiz-adv-x="1208" 
d="M1178 0h-205l-330 549q-15 25 -33 71h-4q-10 -23 -34 -71l-340 -549h-206l480 721l-442 713h206l293 -504q29 -50 51 -100h4q32 66 56 104l305 500h193l-451 -711z" />
    <glyph glyph-name="Y" unicode="Y" horiz-adv-x="1132" 
d="M1120 1434l-473 -904v-530h-168v526l-461 908h191l321 -648q6 -12 35 -88h3q10 34 38 88l336 648h178z" />
    <glyph glyph-name="Z" unicode="Z" horiz-adv-x="1168" 
d="M1124 1394l-840 -1242h820v-152h-1071v47l833 1235h-766v152h1024v-40z" />
    <glyph glyph-name="bracketleft" unicode="[" horiz-adv-x="618" 
d="M568 -326h-368v1760h368v-119h-222v-1522h222v-119z" />
    <glyph glyph-name="backslash" unicode="\" horiz-adv-x="776" 
d="M798 -240h-151l-673 1674h155z" />
    <glyph glyph-name="bracketright" unicode="]" horiz-adv-x="618" 
d="M420 -326h-367v119h221v1522h-221v119h367v-1760z" />
    <glyph glyph-name="asciicircum" unicode="^" horiz-adv-x="1401" 
d="M1174 624h-150l-332 619h-6l-309 -619h-147l422 834h65z" />
    <glyph glyph-name="underscore" unicode="_" horiz-adv-x="850" 
d="M850 -297h-850v119h850v-119z" />
    <glyph glyph-name="grave" unicode="`" horiz-adv-x="549" 
d="M471 1218h-127l-262 328h168z" />
    <glyph glyph-name="a" unicode="a" horiz-adv-x="1042" 
d="M899 0h-164v160h-4q-107 -184 -315 -184q-153 0 -239.5 81t-86.5 215q0 287 338 334l307 43q0 261 -211 261q-185 0 -334 -126v168q151 96 348 96q361 0 361 -382v-666zM735 518l-247 -34q-114 -16 -172 -56.5t-58 -143.5q0 -75 53.5 -122.5t142.5 -47.5
q122 0 201.5 85.5t79.5 216.5v102z" />
    <glyph glyph-name="b" unicode="b" horiz-adv-x="1204" 
d="M334 148h-4v-148h-164v1516h164v-672h4q121 204 354 204q197 0 308.5 -137.5t111.5 -368.5q0 -257 -125 -411.5t-342 -154.5q-203 0 -307 172zM330 561v-143q0 -127 82.5 -215.5t209.5 -88.5q149 0 233.5 114t84.5 317q0 171 -79 268t-214 97q-143 0 -230 -99.5
t-87 -249.5z" />
    <glyph glyph-name="c" unicode="c" horiz-adv-x="946" 
d="M864 47q-118 -71 -280 -71q-219 0 -353.5 142.5t-134.5 369.5q0 253 145 406.5t387 153.5q135 0 238 -50v-168q-114 80 -244 80q-157 0 -257.5 -112.5t-100.5 -295.5q0 -180 94.5 -284t253.5 -104q134 0 252 89v-156z" />
    <glyph glyph-name="d" unicode="d" horiz-adv-x="1206" 
d="M1040 0h-164v174h-4q-114 -198 -352 -198q-193 0 -308.5 137.5t-115.5 374.5q0 254 128 407t341 153q211 0 307 -166h4v634h164v-1516zM876 463v151q0 124 -82 210t-208 86q-150 0 -236 -110t-86 -304q0 -177 82.5 -279.5t221.5 -102.5q137 0 222.5 99t85.5 250z" />
    <glyph glyph-name="e" unicode="e" horiz-adv-x="1071" 
d="M989 471h-723q4 -171 92 -264t242 -93q173 0 318 114v-154q-135 -98 -357 -98q-217 0 -341 139.5t-124 392.5q0 239 135.5 389.5t336.5 150.5t311 -130t110 -361v-86zM821 610q-1 142 -68.5 221t-187.5 79q-116 0 -197 -83t-100 -217h553z" />
    <glyph glyph-name="f" unicode="f" horiz-adv-x="641" 
d="M672 1372q-48 27 -109 27q-172 0 -172 -217v-158h240v-140h-240v-884h-163v884h-175v140h175v166q0 161 93 254.5t232 93.5q75 0 119 -18v-148z" />
    <glyph glyph-name="g" unicode="g" horiz-adv-x="1206" 
d="M1040 82q0 -564 -540 -564q-190 0 -332 72v164q173 -96 330 -96q378 0 378 402v112h-4q-117 -196 -352 -196q-191 0 -307.5 136.5t-116.5 366.5q0 261 125.5 415t343.5 154q207 0 307 -166h4v142h164v-942zM876 463v151q0 122 -82.5 209t-205.5 87q-152 0 -238 -110.5
t-86 -309.5q0 -171 82.5 -273.5t218.5 -102.5q138 0 224.5 98t86.5 251z" />
    <glyph glyph-name="h" unicode="h" horiz-adv-x="1159" 
d="M1016 0h-164v590q0 320 -238 320q-120 0 -202 -92.5t-82 -237.5v-580h-164v1516h164v-662h4q118 194 336 194q346 0 346 -417v-631z" />
    <glyph glyph-name="i" unicode="i" horiz-adv-x="496" 
d="M250 1284q-44 0 -75 30t-31 76t31 76.5t75 30.5q45 0 76.5 -30.5t31.5 -76.5q0 -44 -31.5 -75t-76.5 -31zM330 0h-164v1024h164v-1024z" />
    <glyph glyph-name="j" unicode="j" horiz-adv-x="496" 
d="M330 43q0 -252 -101.5 -388.5t-290.5 -136.5q-70 0 -136 32v153q74 -45 140 -45q224 0 224 358v1008h164v-981zM250 1284q-44 0 -75 30t-31 76t31 76.5t75 30.5q45 0 76.5 -30.5t31.5 -76.5q0 -44 -31.5 -75t-76.5 -31z" />
    <glyph glyph-name="k" unicode="k" horiz-adv-x="1018" 
d="M1016 0h-230l-452 492h-4v-492h-164v1516h164v-961h4l430 469h215l-475 -494z" />
    <glyph glyph-name="l" unicode="l" horiz-adv-x="496" 
d="M330 0h-164v1516h164v-1516z" />
    <glyph glyph-name="m" unicode="m" horiz-adv-x="1764" 
d="M1620 0h-164v588q0 170 -52.5 246t-176.5 76q-105 0 -178.5 -96t-73.5 -230v-584h-164v608q0 302 -233 302q-108 0 -178 -90.5t-70 -235.5v-584h-164v1024h164v-162h4q109 186 318 186q105 0 183 -58.5t107 -153.5q114 212 340 212q338 0 338 -417v-631z" />
    <glyph glyph-name="n" unicode="n" horiz-adv-x="1159" 
d="M1016 0h-164v584q0 326 -238 326q-123 0 -203.5 -92.5t-80.5 -233.5v-584h-164v1024h164v-170h4q116 194 336 194q168 0 257 -108.5t89 -313.5v-626z" />
    <glyph glyph-name="o" unicode="o" horiz-adv-x="1200" 
d="M594 -24q-227 0 -362.5 143.5t-135.5 380.5q0 258 141 403t381 145q229 0 357.5 -141t128.5 -391q0 -245 -138.5 -392.5t-371.5 -147.5zM606 910q-158 0 -250 -107.5t-92 -296.5q0 -182 93 -287t249 -105q159 0 244.5 103t85.5 293q0 192 -85.5 296t-244.5 104z" />
    <glyph glyph-name="p" unicode="p" horiz-adv-x="1204" 
d="M334 148h-4v-619h-164v1495h164v-180h4q121 204 354 204q198 0 309 -137.5t111 -368.5q0 -257 -125 -411.5t-342 -154.5q-199 0 -307 172zM330 561v-143q0 -127 82.5 -215.5t209.5 -88.5q149 0 233.5 114t84.5 317q0 171 -79 268t-214 97q-143 0 -230 -99.5t-87 -249.5z
" />
    <glyph glyph-name="q" unicode="q" horiz-adv-x="1206" 
d="M1040 -471h-164v647h-4q-107 -200 -350 -200q-193 0 -309.5 137.5t-116.5 374.5q0 255 128 407.5t344 152.5q210 0 304 -166h4v142h164v-1495zM876 461v149q0 126 -82.5 213t-209.5 87q-148 0 -234 -109.5t-86 -308.5q0 -177 83 -277.5t214 -100.5q144 0 229.5 98.5
t85.5 248.5z" />
    <glyph glyph-name="r" unicode="r" horiz-adv-x="712" 
d="M700 858q-43 33 -124 33q-105 0 -175.5 -99t-70.5 -270v-522h-164v1024h164v-211h4q35 108 107 168.5t161 60.5q64 0 98 -14v-170z" />
    <glyph glyph-name="s" unicode="s" horiz-adv-x="869" 
d="M104 37v176q134 -99 295 -99q216 0 216 144q0 41 -18.5 69.5t-50 50.5t-74 39.5t-91.5 36.5q-68 27 -119.5 54.5t-86 62t-52 78.5t-17.5 103q0 72 33 127.5t88 93t125.5 56.5t145.5 19q133 0 238 -46v-166q-113 74 -260 74q-46 0 -83 -10.5t-63.5 -29.5t-41 -45.5
t-14.5 -58.5q0 -40 14.5 -67t42.5 -48t68 -38t91 -37q68 -26 122 -53.5t92 -62t58.5 -79.5t20.5 -107q0 -76 -33.5 -132t-89.5 -93t-129 -55t-153 -18q-158 0 -274 61z" />
    <glyph glyph-name="t" unicode="t" horiz-adv-x="694" 
d="M641 10q-58 -32 -153 -32q-269 0 -269 300v606h-176v140h176v250l164 53v-303h258v-140h-258v-577q0 -103 35 -147t116 -44q62 0 107 34v-140z" />
    <glyph glyph-name="u" unicode="u" horiz-adv-x="1159" 
d="M994 0h-164v162h-4q-102 -186 -316 -186q-366 0 -366 436v612h163v-586q0 -324 248 -324q120 0 197.5 88.5t77.5 231.5v590h164v-1024z" />
    <glyph glyph-name="v" unicode="v" horiz-adv-x="981" 
d="M971 1024l-408 -1024h-161l-388 1024h180l260 -744q29 -82 36 -143h4q10 77 32 139l272 748h173z" />
    <glyph glyph-name="w" unicode="w" horiz-adv-x="1480" 
d="M1456 1024l-307 -1024h-170l-211 733q-12 42 -16 95h-4q-3 -36 -21 -93l-229 -735h-164l-310 1024h172l212 -770q10 -35 14 -92h8q3 44 18 94l236 768h150l212 -772q10 -37 15 -92h8q2 39 17 92l208 772h162z" />
    <glyph glyph-name="x" unicode="x" horiz-adv-x="940" 
d="M914 1024l-344 -518l338 -506h-191l-201 332q-19 31 -45 78h-4q-5 -9 -47 -78l-205 -332h-189l349 502l-334 522h191l198 -350q22 -39 43 -80h4l256 430h181z" />
    <glyph glyph-name="y" unicode="y" horiz-adv-x="991" 
d="M981 1024l-471 -1188q-126 -318 -354 -318q-64 0 -107 13v147q53 -18 97 -18q124 0 186 148l82 194l-400 1022h182l277 -788q5 -15 21 -78h6q5 24 20 76l291 790h170z" />
    <glyph glyph-name="z" unicode="z" horiz-adv-x="926" 
d="M880 977l-606 -837h600v-140h-841v51l606 833h-549v140h790v-47z" />
    <glyph glyph-name="braceleft" unicode="{" horiz-adv-x="618" 
d="M555 -326q-307 4 -307 310v300q0 202 -156 212v116q156 10 156 216v292q0 310 307 314v-128q-159 -4 -159 -198v-293q0 -210 -150 -258v-4q150 -45 150 -256v-289q0 -111 35.5 -158.5t123.5 -49.5v-126z" />
    <glyph glyph-name="bar" unicode="|" horiz-adv-x="490" 
d="M320 -482h-148v2048h148v-2048z" />
    <glyph glyph-name="braceright" unicode="}" horiz-adv-x="618" 
d="M528 496q-156 -10 -156 -212v-300q0 -306 -306 -310v126q87 2 123.5 50t36.5 158v289q0 211 149 256v4q-149 48 -149 258v293q0 194 -160 198v128q306 -4 306 -314v-292q0 -206 156 -216v-116z" />
    <glyph glyph-name="asciitilde" unicode="~" horiz-adv-x="1401" 
d="M1194 750q-7 -148 -80.5 -229t-199.5 -81q-109 0 -265 109q-97 67 -159 67q-140 0 -146 -176h-135q5 143 79.5 226.5t201.5 83.5q106 0 235 -88q132 -90 197 -90q61 0 98 49t39 129h135z" />
    <glyph glyph-name="nonbreakingspace" unicode="&#xa0;" horiz-adv-x="561" 
 />
    <glyph glyph-name="exclamdown" unicode="&#xa1;" horiz-adv-x="582" 
d="M291 826q-46 0 -78.5 32t-32.5 78t32.5 78t78.5 32q45 0 78 -32t33 -78t-33 -78t-78 -32zM379 -406h-172l19 1030h134z" />
    <glyph glyph-name="cent" unicode="&#xa2;" horiz-adv-x="1104" 
d="M952 209q-96 -59 -221 -69v-189h-125v191q-193 22 -307.5 161t-114.5 346q0 219 114.5 366.5t307.5 184.5v213h125v-203q123 -2 221 -51v-172q-101 71 -221 78v-785q122 12 221 86v-157zM606 291v761q-119 -31 -186.5 -133.5t-67.5 -252.5t68 -249t186 -126z" />
    <glyph glyph-name="sterling" unicode="&#xa3;" horiz-adv-x="1104" 
d="M1006 0h-900v135q218 69 218 313v187h-197v141h197v254q0 188 109 308t282 120q117 0 213 -41v-155q-100 57 -211 57q-229 0 -229 -307v-236h296v-141h-296v-156q0 -242 -193 -339h711v-140z" />
    <glyph glyph-name="currency" unicode="&#xa4;" horiz-adv-x="1138" 
d="M1038 354l-92 -96l-137 138q-105 -76 -239 -76q-136 0 -240 76l-138 -138l-92 96l138 134q-76 113 -76 237q0 129 76 237l-138 136l92 96l138 -137q110 77 240 77q129 0 237 -77l139 137l92 -96l-137 -136q78 -112 78 -237q0 -121 -78 -237zM570 1002q-116 0 -195.5 -81
t-79.5 -194t80.5 -194t194.5 -81q113 0 194.5 81t81.5 194t-83 194t-193 81z" />
    <glyph glyph-name="yen" unicode="&#xa5;" horiz-adv-x="1104" 
d="M1042 1434l-356 -656h285v-139h-334v-207h334v-139h-334v-293h-164v293h-344v139h344v207h-344v139h291l-352 656h192l250 -514q28 -58 47 -111h4q13 42 49 117l252 508h180z" />
    <glyph glyph-name="brokenbar" unicode="&#xa6;" horiz-adv-x="490" 
d="M320 715h-148v851h148v-851zM320 -482h-148v852h148v-852z" />
    <glyph glyph-name="section" unicode="&#xa7;" horiz-adv-x="918" 
d="M658 416q90 -74 90 -186q0 -132 -100 -214t-255 -82q-131 0 -239 56v158q130 -74 250 -74q84 0 130 39.5t46 99.5q0 53 -35.5 89.5t-180.5 113.5q-233 122 -233 317q0 163 147 244q-106 83 -106 223q0 127 93.5 209t246.5 82q130 0 219 -43v-158q-101 62 -223 62
q-168 0 -168 -144q0 -55 40.5 -100t203.5 -123q223 -107 223 -293q0 -170 -149 -276zM398 905q-101 -51 -101 -159q0 -72 56.5 -126.5t197.5 -117.5q88 68 88 172q0 72 -52.5 122.5t-188.5 108.5z" />
    <glyph glyph-name="dieresis" unicode="&#xa8;" horiz-adv-x="848" 
d="M610 1218q-40 0 -69 28t-29 71q0 42 28 70t68 28q42 0 71 -28.5t29 -69.5t-28 -70t-70 -29zM226 1218q-42 0 -71.5 29.5t-29.5 69.5q0 42 28.5 70t69.5 28t71 -28.5t30 -69.5t-29 -70t-69 -29z" />
    <glyph glyph-name="copyright" unicode="&#xa9;" horiz-adv-x="1823" 
d="M912 -33q-311 0 -530.5 219.5t-219.5 530.5t219.5 530.5t530.5 219.5q310 0 529.5 -219.5t219.5 -530.5t-219.5 -530.5t-529.5 -219.5zM912 1379q-274 0 -468 -194t-194 -468t194 -467.5t468 -193.5t467.5 193.5t193.5 467.5t-193.5 468t-467.5 194zM1213 266
q-114 -69 -269 -69q-209 0 -350 141.5t-141 353.5q0 247 144.5 394t375.5 147q132 0 236 -53v-150q-95 72 -254 72q-156 0 -257.5 -106.5t-101.5 -286.5q0 -174 103.5 -279.5t263.5 -105.5q146 0 250 78v-136z" />
    <glyph glyph-name="ordfeminine" unicode="&#xaa;" horiz-adv-x="803" 
d="M688 717h-129v100h-4q-79 -119 -231 -119q-109 0 -175.5 59.5t-66.5 152.5q0 202 248 235l229 31q0 168 -151 168q-136 0 -254 -86v128q111 70 266 70q126 0 197 -72t71 -202v-465zM559 1075l-180 -25q-168 -23 -168 -134q0 -51 38.5 -83t102.5 -32q82 0 144.5 61
t62.5 146v67z" />
    <glyph glyph-name="guillemotleft" unicode="&#xab;" horiz-adv-x="1036" 
d="M946 200h-168l-299 336l299 344h170l-307 -344zM557 200h-166l-299 336l299 344h166l-303 -344z" />
    <glyph glyph-name="logicalnot" unicode="&#xac;" horiz-adv-x="1401" 
d="M1172 254h-132v430h-808v133h940v-563z" />
    <glyph glyph-name="sfthyphen" unicode="&#xad;" horiz-adv-x="819" 
d="M690 506h-546v129h546v-129z" />
    <glyph glyph-name="registered" unicode="&#xae;" horiz-adv-x="1823" 
d="M912 -33q-311 0 -530.5 219.5t-219.5 530.5t219.5 530.5t530.5 219.5q310 0 529.5 -219.5t219.5 -530.5t-219.5 -530.5t-529.5 -219.5zM912 1379q-274 0 -468 -194t-194 -468t194 -467.5t468 -193.5t467.5 193.5t193.5 467.5t-193.5 468t-467.5 194zM1276 248h-162
l-104 229q-79 172 -170 172h-88v-401h-133v954h268q167 0 257.5 -70t90.5 -190q0 -98 -63.5 -167t-177.5 -93v-4q79 -17 157 -176zM752 1088v-326h143q197 0 197 164q0 88 -53 125t-168 37h-119z" />
    <glyph glyph-name="uni00AF" unicode="&#xaf;" horiz-adv-x="850" 
d="M850 1396h-850v120h850v-120z" />
    <glyph glyph-name="degree" unicode="&#xb0;" horiz-adv-x="772" 
d="M385 897q-115 0 -196 81.5t-81 197.5q0 115 80 194.5t195 79.5q116 0 197.5 -80t81.5 -194q0 -116 -81 -197.5t-196 -81.5zM385 1333q-65 0 -111 -46t-46 -111q0 -67 45 -114.5t110 -47.5t112 48t47 114t-46 111.5t-111 45.5z" />
    <glyph glyph-name="plusminus" unicode="&#xb1;" horiz-adv-x="1401" 
d="M1172 652h-404v-404h-131v404h-405v132h405v404h131v-404h404v-132zM1172 0h-940v133h940v-133z" />
    <glyph glyph-name="twosuperior" unicode="&#xb2;" horiz-adv-x="750" 
d="M658 884h-554v114l240 236q104 102 132 156.5t28 109.5q0 58 -38 94.5t-100 36.5q-118 0 -216 -102v149q84 76 235 76q118 0 187 -66t69 -174q0 -153 -205 -348l-164 -156v-4h386v-122z" />
    <glyph glyph-name="threesuperior" unicode="&#xb3;" horiz-adv-x="750" 
d="M129 916v142q103 -76 217 -76q80 0 126 37.5t46 101.5q0 141 -219 141h-84v118h80q197 0 197 134q0 119 -144 119q-94 0 -186 -69v139q87 51 213 51q113 0 180 -59.5t67 -155.5q0 -151 -145 -205v-4q177 -42 177 -202q0 -117 -85 -191t-227 -74q-137 0 -213 53z" />
    <glyph glyph-name="acute" unicode="&#xb4;" horiz-adv-x="578" 
d="M524 1546l-262 -328h-127l223 328h166z" />
    <glyph glyph-name="mu1" unicode="&#xb5;" horiz-adv-x="1182" 
d="M1048 0h-170q-23 72 -23 168h-5q-84 -191 -279 -191q-167 0 -238 123h-4v-496h-163v1420h163v-626q0 -127 69 -202t180 -75q121 0 196.5 86t75.5 231v586h166v-759q0 -188 32 -265z" />
    <glyph glyph-name="paragraph" unicode="&#xb6;" horiz-adv-x="938" 
d="M834 1331h-128v-1331h-106v1331h-158v-1331h-108v903q-108 0 -179 76t-71 191q0 117 74.5 190.5t181.5 73.5h494v-103z" />
    <glyph glyph-name="periodcentered" unicode="&#xb7;" horiz-adv-x="444" 
d="M223 510q-46 0 -78.5 33t-32.5 79q0 47 32.5 80t78.5 33q47 0 80 -33t33 -80q0 -46 -33 -79t-80 -33z" />
    <glyph glyph-name="cedilla" unicode="&#xb8;" horiz-adv-x="420" 
d="M391 -256q0 -176 -275 -176q-38 0 -65 2v90q43 -6 70 -6q141 0 141 90q0 78 -129 78q-10 0 -41 -4v182h108v-104q88 0 139.5 -40t51.5 -112z" />
    <glyph glyph-name="onesuperior" unicode="&#xb9;" horiz-adv-x="719" 
d="M639 884h-504v112h185v594l-193 -55v125l323 96v-760h189v-112z" />
    <glyph glyph-name="ordmasculine" unicode="&#xba;" horiz-adv-x="882" 
d="M436 696q-167 0 -262.5 100.5t-95.5 272.5q0 181 102.5 283t271.5 102q163 0 257 -99.5t94 -270.5q0 -178 -99.5 -283t-267.5 -105zM444 1344q-106 0 -168.5 -72t-62.5 -199q0 -124 59.5 -194t169.5 -70q105 0 166.5 71.5t61.5 194.5q0 126 -60.5 197.5t-165.5 71.5z" />
    <glyph glyph-name="guillemotright" unicode="&#xbb;" horiz-adv-x="1036" 
d="M948 538l-301 -338h-165l302 338l-302 342h165zM559 538l-299 -338h-170l308 338l-308 342h170z" />
    <glyph glyph-name="onequarter" unicode="&#xbc;" horiz-adv-x="1856" 
d="M639 584h-504v112h185v594l-193 -55v125l323 96v-760h189v-112zM1393 1434l-858 -1434h-144l859 1434h143zM1706 204h-110v-204h-132v204h-393v92l369 554h156v-537h110v-109zM1468 724h-4q-12 -31 -38 -73l-218 -338h256v323q0 32 4 88z" />
    <glyph glyph-name="onehalf" unicode="&#xbd;" horiz-adv-x="1906" 
d="M639 584h-504v112h185v594l-193 -55v125l323 96v-760h189v-112zM1393 1434l-858 -1434h-144l859 1434h143zM1748 1h-554v114l240 236q104 102 132 156.5t28 109.5q0 58 -38 94.5t-100 36.5q-118 0 -216 -102v149q84 76 235 76q118 0 187 -66t69 -174q0 -153 -205 -348
l-164 -156v-4h386v-122z" />
    <glyph glyph-name="threequarters" unicode="&#xbe;" horiz-adv-x="1950" 
d="M129 616v142q103 -76 217 -76q80 0 126 37.5t46 101.5q0 141 -219 141h-84v118h80q197 0 197 134q0 119 -144 119q-94 0 -186 -69v139q87 51 213 51q113 0 180 -59.5t67 -155.5q0 -151 -145 -205v-4q177 -42 177 -202q0 -117 -85 -191t-227 -74q-137 0 -213 53z
M1464 1434l-858 -1434h-144l859 1434h143zM1771 204h-110v-204h-132v204h-393v92l369 554h156v-537h110v-109zM1533 724h-4q-12 -31 -38 -73l-218 -338h256v323q0 32 4 88z" />
    <glyph glyph-name="questiondown" unicode="&#xbf;" horiz-adv-x="918" 
d="M625 630q9 -26 16 -67.5t7 -82.5q0 -64 -25.5 -115.5t-63.5 -96.5t-83 -86.5t-83 -84t-63.5 -89t-25.5 -102.5q0 -48 18.5 -85t50.5 -62t74 -37.5t89 -12.5q169 0 293 133v-176q-153 -96 -317 -96q-76 0 -143 20t-117 59.5t-79.5 98.5t-29.5 137q0 74 26 132t65.5 106.5
t85.5 90.5t85.5 83.5t65.5 86.5t26 99q0 46 -11 83.5t-22 63.5h161zM535 1046q44 0 78 -32q33 -31 33 -78q0 -46 -33 -78q-33 -33 -78 -33t-78 33q-33 32 -33 78q0 47 33 78q34 32 78 32z" />
    <glyph glyph-name="Agrave" unicode="&#xc0;" horiz-adv-x="1321" 
d="M1298 0h-186l-152 402h-608l-143 -402h-187l550 1434h174zM905 553l-225 611q-11 30 -22 96h-4q-10 -61 -23 -96l-223 -611h497zM758 1566h-127l-262 328h168z" />
    <glyph glyph-name="Aacute" unicode="&#xc1;" horiz-adv-x="1321" 
d="M1298 0h-186l-152 402h-608l-143 -402h-187l550 1434h174zM905 553l-225 611q-11 30 -22 96h-4q-10 -61 -23 -96l-223 -611h497zM867 1894l-262 -328h-127l223 328h166z" />
    <glyph glyph-name="Acircumflex" unicode="&#xc2;" horiz-adv-x="1321" 
d="M1298 0h-186l-152 402h-608l-143 -402h-187l550 1434h174zM905 553l-225 611q-11 30 -22 96h-4q-10 -61 -23 -96l-223 -611h497zM927 1565h-122l-164 230l-165 -230h-113l215 332h133z" />
    <glyph glyph-name="Atilde" unicode="&#xc3;" horiz-adv-x="1321" 
d="M1298 0h-186l-152 402h-608l-143 -402h-187l550 1434h174zM905 553l-225 611q-11 30 -22 96h-4q-10 -61 -23 -96l-223 -611h497zM977 1803q0 -105 -48 -171.5t-130 -66.5q-71 0 -162 52q-77 43 -119 43q-88 0 -88 -113h-94q0 107 48 171.5t134 64.5q65 0 149 -52
q74 -44 128 -44q84 0 84 116h98z" />
    <glyph glyph-name="Adieresis" unicode="&#xc4;" horiz-adv-x="1321" 
d="M1298 0h-186l-152 402h-608l-143 -402h-187l550 1434h174zM905 553l-225 611q-11 30 -22 96h-4q-10 -61 -23 -96l-223 -611h497zM840 1565q-40 0 -69 28t-29 71q0 42 28 70t68 28q42 0 71 -28.5t29 -69.5t-28 -70t-70 -29zM456 1565q-42 0 -71.5 29.5t-29.5 69.5
q0 42 28.5 70t69.5 28t71 -28.5t30 -69.5t-29 -70t-69 -29z" />
    <glyph glyph-name="Aring" unicode="&#xc5;" horiz-adv-x="1321" 
d="M1298 0h-186l-152 402h-608l-143 -402h-187l529 1378q-101 52 -101 164q0 89 60 144t152 55q88 0 144 -54.5t56 -138.5q0 -112 -96 -166zM656 1659q-50 0 -82 -31.5t-32 -79.5q0 -114 114 -114q48 0 81 33t33 81q0 49 -33 80t-81 31zM905 553l-225 611q-11 30 -22 96h-4
q-10 -61 -23 -96l-223 -611h497z" />
    <glyph glyph-name="AE" unicode="&#xc6;" horiz-adv-x="1762" 
d="M1667 0h-759v402h-510l-193 -402h-195l700 1434h924v-152h-559v-477h519v-151h-519v-502h592v-152zM908 553v729h-95l-346 -729h441z" />
    <glyph glyph-name="Ccedilla" unicode="&#xc7;" horiz-adv-x="1268" 
d="M1164 60q-159 -84 -396 -84q-306 0 -490 197t-184 517q0 344 207 556t525 212q204 0 338 -59v-179q-154 86 -340 86q-247 0 -400.5 -165t-153.5 -441q0 -262 143.5 -417.5t376.5 -155.5q216 0 374 96v-163zM960 -256q0 -176 -275 -176q-38 0 -65 2v90q43 -6 70 -6
q141 0 141 90q0 78 -129 78q-10 0 -41 -4v182h108v-104q88 0 139.5 -40t51.5 -112z" />
    <glyph glyph-name="Egrave" unicode="&#xc8;" horiz-adv-x="1036" 
d="M948 0h-760v1434h728v-152h-560v-477h518v-151h-518v-502h592v-152zM703 1566h-127l-262 328h168z" />
    <glyph glyph-name="Eacute" unicode="&#xc9;" horiz-adv-x="1036" 
d="M948 0h-760v1434h728v-152h-560v-477h518v-151h-518v-502h592v-152zM803 1893l-262 -328h-127l223 328h166z" />
    <glyph glyph-name="Ecircumflex" unicode="&#xca;" horiz-adv-x="1036" 
d="M948 0h-760v1434h728v-152h-560v-477h518v-151h-518v-502h592v-152zM827 1567h-122l-164 230l-165 -230h-113l215 332h133z" />
    <glyph glyph-name="Edieresis" unicode="&#xcb;" horiz-adv-x="1036" 
d="M948 0h-760v1434h728v-152h-560v-477h518v-151h-518v-502h592v-152zM749 1566q-40 0 -69 28t-29 71q0 42 28 70t68 28q42 0 71 -28.5t29 -69.5t-28 -70t-70 -29zM365 1566q-42 0 -71.5 29.5t-29.5 69.5q0 42 28.5 70t69.5 28t71 -28.5t30 -69.5t-29 -70t-69 -29z" />
    <glyph glyph-name="Igrave" unicode="&#xcc;" horiz-adv-x="545" 
d="M496 1434v-144h-140v-1146h140v-144h-448v144h140v1146h-140v144h448zM416 1566h-127l-262 328h168z" />
    <glyph glyph-name="Iacute" unicode="&#xcd;" horiz-adv-x="545" 
d="M496 1434v-144h-140v-1146h140v-144h-448v144h140v1146h-140v144h448zM509 1894l-262 -328h-127l223 328h166z" />
    <glyph glyph-name="Icircumflex" unicode="&#xce;" horiz-adv-x="545" 
d="M496 1434v-144h-140v-1146h140v-144h-448v144h140v1146h-140v144h448zM560 1567h-122l-164 230l-165 -230h-113l215 332h133z" />
    <glyph glyph-name="Idieresis" unicode="&#xcf;" horiz-adv-x="545" 
d="M496 1434v-144h-140v-1146h140v-144h-448v144h140v1146h-140v144h448zM470 1566q-40 0 -69 28t-29 71q0 42 28 70t68 28q42 0 71 -28.5t29 -69.5t-28 -70t-70 -29zM86 1566q-42 0 -71.5 29.5t-29.5 69.5q0 42 28.5 70t69.5 28t71 -28.5t30 -69.5t-29 -70t-69 -29z" />
    <glyph glyph-name="Eth" unicode="&#xd0;" horiz-adv-x="1436" 
d="M188 0v641h-160v155h160v638h396q758 0 758 -699q0 -334 -210.5 -534.5t-563.5 -200.5h-380zM356 1282v-486h336v-155h-336v-489h214q282 0 439 151t157 428q0 551 -586 551h-224z" />
    <glyph glyph-name="Ntilde" unicode="&#xd1;" horiz-adv-x="1532" 
d="M1344 0h-206l-738 1143q-28 43 -46 90h-6q8 -46 8 -197v-1036h-168v1434h218l718 -1125q45 -70 58 -96h4q-10 62 -10 211v1010h168v-1434zM1113 1803q0 -105 -48 -171.5t-130 -66.5q-71 0 -162 52q-77 43 -119 43q-88 0 -88 -113h-94q0 107 48 171.5t134 64.5
q65 0 149 -52q74 -44 128 -44q84 0 84 116h98z" />
    <glyph glyph-name="Ograve" unicode="&#xd2;" horiz-adv-x="1544" 
d="M766 -24q-305 0 -488.5 201t-183.5 523q0 346 187 552t509 206q297 0 478.5 -200t181.5 -523q0 -351 -186 -555t-498 -204zM778 1306q-226 0 -367 -163t-141 -428t137.5 -426.5t358.5 -161.5q236 0 372 154t136 431q0 284 -132 439t-364 155zM880 1566h-127l-262 328h168
z" />
    <glyph glyph-name="Oacute" unicode="&#xd3;" horiz-adv-x="1544" 
d="M766 -24q-305 0 -488.5 201t-183.5 523q0 346 187 552t509 206q297 0 478.5 -200t181.5 -523q0 -351 -186 -555t-498 -204zM778 1306q-226 0 -367 -163t-141 -428t137.5 -426.5t358.5 -161.5q236 0 372 154t136 431q0 284 -132 439t-364 155zM1028 1894l-262 -328h-127
l223 328h166z" />
    <glyph glyph-name="Ocircumflex" unicode="&#xd4;" horiz-adv-x="1544" 
d="M766 -24q-305 0 -488.5 201t-183.5 523q0 346 187 552t509 206q297 0 478.5 -200t181.5 -523q0 -351 -186 -555t-498 -204zM778 1306q-226 0 -367 -163t-141 -428t137.5 -426.5t358.5 -161.5q236 0 372 154t136 431q0 284 -132 439t-364 155zM1063 1566h-122l-164 230
l-165 -230h-113l215 332h133z" />
    <glyph glyph-name="Otilde" unicode="&#xd5;" horiz-adv-x="1544" 
d="M766 -24q-305 0 -488.5 201t-183.5 523q0 346 187 552t509 206q297 0 478.5 -200t181.5 -523q0 -351 -186 -555t-498 -204zM778 1306q-226 0 -367 -163t-141 -428t137.5 -426.5t358.5 -161.5q236 0 372 154t136 431q0 284 -132 439t-364 155zM1103 1802
q0 -105 -48 -171.5t-130 -66.5q-71 0 -162 52q-77 43 -119 43q-88 0 -88 -113h-94q0 107 48 171.5t134 64.5q65 0 149 -52q74 -44 128 -44q84 0 84 116h98z" />
    <glyph glyph-name="Odieresis" unicode="&#xd6;" horiz-adv-x="1544" 
d="M766 -24q-305 0 -488.5 201t-183.5 523q0 346 187 552t509 206q297 0 478.5 -200t181.5 -523q0 -351 -186 -555t-498 -204zM778 1306q-226 0 -367 -163t-141 -428t137.5 -426.5t358.5 -161.5q236 0 372 154t136 431q0 284 -132 439t-364 155zM968 1563q-40 0 -69 28
t-29 71q0 42 28 70t68 28q42 0 71 -28.5t29 -69.5t-28 -70t-70 -29zM584 1563q-42 0 -71.5 29.5t-29.5 69.5q0 42 28.5 70t69.5 28t71 -28.5t30 -69.5t-29 -70t-69 -29z" />
    <glyph glyph-name="multiply" unicode="&#xd7;" horiz-adv-x="1401" 
d="M1134 258l-94 -94l-340 340l-338 -340l-94 94l340 338l-340 340l94 94l338 -340l340 340l94 -94l-340 -340z" />
    <glyph glyph-name="Oslash" unicode="&#xd8;" horiz-adv-x="1544" 
d="M324 131l-152 -182l-78 65l158 191q-158 195 -158 495q0 343 186.5 550.5t509.5 207.5q234 0 402 -129l135 162l78 -63l-139 -166q184 -200 184 -527q0 -351 -186 -555t-498 -204q-266 0 -442 155zM1090 1204q-126 102 -312 102q-227 0 -367.5 -164t-140.5 -427
q0 -223 98 -373zM1157 1130l-725 -866q131 -137 334 -137q236 0 372 154.5t136 430.5q0 260 -117 418z" />
    <glyph glyph-name="Ugrave" unicode="&#xd9;" horiz-adv-x="1407" 
d="M1237 580q0 -604 -545 -604q-522 0 -522 581v877h168v-866q0 -441 372 -441q359 0 359 426v881h168v-854zM830 1566h-127l-262 328h168z" />
    <glyph glyph-name="Uacute" unicode="&#xda;" horiz-adv-x="1407" 
d="M1237 580q0 -604 -545 -604q-522 0 -522 581v877h168v-866q0 -441 372 -441q359 0 359 426v881h168v-854zM960 1893l-262 -328h-127l223 328h166z" />
    <glyph glyph-name="Ucircumflex" unicode="&#xdb;" horiz-adv-x="1407" 
d="M1237 580q0 -604 -545 -604q-522 0 -522 581v877h168v-866q0 -441 372 -441q359 0 359 426v881h168v-854zM987 1567h-122l-164 230l-165 -230h-113l215 332h133z" />
    <glyph glyph-name="Udieresis" unicode="&#xdc;" horiz-adv-x="1407" 
d="M1237 580q0 -604 -545 -604q-522 0 -522 581v877h168v-866q0 -441 372 -441q359 0 359 426v881h168v-854zM895 1567q-40 0 -69 28t-29 71q0 42 28 70t68 28q42 0 71 -28.5t29 -69.5t-28 -70t-70 -29zM511 1567q-42 0 -71.5 29.5t-29.5 69.5q0 42 28.5 70t69.5 28
t71 -28.5t30 -69.5t-29 -70t-69 -29z" />
    <glyph glyph-name="Yacute" unicode="&#xdd;" horiz-adv-x="1132" 
d="M1120 1434l-473 -904v-530h-168v526l-461 908h191l321 -648q6 -12 35 -88h3q10 34 38 88l336 648h178zM831 1894l-262 -328h-127l223 328h166z" />
    <glyph glyph-name="Thorn" unicode="&#xde;" horiz-adv-x="1147" 
d="M356 318v-318h-168v1434h168v-226h226q232 0 357.5 -111.5t125.5 -316.5q0 -204 -141.5 -333t-381.5 -129h-186zM356 1057v-588h176q173 0 265 78t92 223q0 287 -336 287h-197z" />
    <glyph glyph-name="germandbls" unicode="&#xdf;" horiz-adv-x="1114" 
d="M461 2v160q75 -48 170 -48q109 0 177 73.5t68 197.5q0 150 -100 243.5t-278 113.5v130q118 20 194 103t76 197q0 108 -55 167.5t-152 59.5q-231 0 -231 -309v-1090h-164v1114q0 192 110 308t296 116q166 0 265 -95t99 -251q0 -127 -75 -228t-195 -140v-5
q378 -75 378 -426q0 -177 -111 -297t-294 -120q-101 0 -178 26z" />
    <glyph glyph-name="agrave" unicode="&#xe0;" horiz-adv-x="1042" 
d="M899 0h-164v160h-4q-107 -184 -315 -184q-153 0 -239.5 81t-86.5 215q0 287 338 334l307 43q0 261 -211 261q-185 0 -334 -126v168q151 96 348 96q361 0 361 -382v-666zM735 518l-247 -34q-114 -16 -172 -56.5t-58 -143.5q0 -75 53.5 -122.5t142.5 -47.5
q122 0 201.5 85.5t79.5 216.5v102zM674 1218h-127l-262 328h168z" />
    <glyph glyph-name="aacute" unicode="&#xe1;" horiz-adv-x="1042" 
d="M899 0h-164v160h-4q-107 -184 -315 -184q-153 0 -239.5 81t-86.5 215q0 287 338 334l307 43q0 261 -211 261q-185 0 -334 -126v168q151 96 348 96q361 0 361 -382v-666zM735 518l-247 -34q-114 -16 -172 -56.5t-58 -143.5q0 -75 53.5 -122.5t142.5 -47.5
q122 0 201.5 85.5t79.5 216.5v102zM757 1546l-262 -328h-127l223 328h166z" />
    <glyph glyph-name="acircumflex" unicode="&#xe2;" horiz-adv-x="1042" 
d="M899 0h-164v160h-4q-107 -184 -315 -184q-153 0 -239.5 81t-86.5 215q0 287 338 334l307 43q0 261 -211 261q-185 0 -334 -126v168q151 96 348 96q361 0 361 -382v-666zM735 518l-247 -34q-114 -16 -172 -56.5t-58 -143.5q0 -75 53.5 -122.5t142.5 -47.5
q122 0 201.5 85.5t79.5 216.5v102zM806 1218h-122l-164 230l-165 -230h-113l215 332h133z" />
    <glyph glyph-name="atilde" unicode="&#xe3;" horiz-adv-x="1042" 
d="M899 0h-164v160h-4q-107 -184 -315 -184q-153 0 -239.5 81t-86.5 215q0 287 338 334l307 43q0 261 -211 261q-185 0 -334 -126v168q151 96 348 96q361 0 361 -382v-666zM735 518l-247 -34q-114 -16 -172 -56.5t-58 -143.5q0 -75 53.5 -122.5t142.5 -47.5
q122 0 201.5 85.5t79.5 216.5v102zM844 1458q0 -105 -48 -171.5t-130 -66.5q-71 0 -162 52q-77 43 -119 43q-88 0 -88 -113h-94q0 107 48 171.5t134 64.5q65 0 149 -52q74 -44 128 -44q84 0 84 116h98z" />
    <glyph glyph-name="adieresis" unicode="&#xe4;" horiz-adv-x="1042" 
d="M899 0h-164v160h-4q-107 -184 -315 -184q-153 0 -239.5 81t-86.5 215q0 287 338 334l307 43q0 261 -211 261q-185 0 -334 -126v168q151 96 348 96q361 0 361 -382v-666zM735 518l-247 -34q-114 -16 -172 -56.5t-58 -143.5q0 -75 53.5 -122.5t142.5 -47.5
q122 0 201.5 85.5t79.5 216.5v102zM708 1218q-40 0 -69 28t-29 71q0 42 28 70t68 28q42 0 71 -28.5t29 -69.5t-28 -70t-70 -29zM324 1218q-42 0 -71.5 29.5t-29.5 69.5q0 42 28.5 70t69.5 28t71 -28.5t30 -69.5t-29 -70t-69 -29z" />
    <glyph glyph-name="aring" unicode="&#xe5;" horiz-adv-x="1042" 
d="M899 0h-164v160h-4q-107 -184 -315 -184q-153 0 -239.5 81t-86.5 215q0 287 338 334l307 43q0 261 -211 261q-185 0 -334 -126v168q151 96 348 96q361 0 361 -382v-666zM735 518l-247 -34q-114 -16 -172 -56.5t-58 -143.5q0 -75 53.5 -122.5t142.5 -47.5
q122 0 201.5 85.5t79.5 216.5v102zM517 1176q-87 0 -144.5 52.5t-57.5 137.5q0 90 59 144t150 54q89 0 146 -54t57 -138t-61 -140t-149 -56zM517 1483q-48 0 -80 -32.5t-32 -80.5q0 -112 112 -112q50 0 83 32t33 80q0 49 -33 81t-83 32z" />
    <glyph glyph-name="ae" unicode="&#xe6;" horiz-adv-x="1704" 
d="M1622 471h-725q3 -171 91 -264t241 -93q177 0 321 114v-154q-132 -98 -358 -98q-270 0 -383 229h-4q-145 -229 -387 -229q-153 0 -240.5 80.5t-87.5 215.5q0 300 383 324l262 16q0 298 -215 298q-175 0 -330 -122v164q148 96 348 96q232 0 300 -200h4q116 200 356 200
q202 0 313 -130.5t111 -362.5v-84zM1454 610q-2 144 -68.5 222t-185.5 78q-116 0 -199 -82t-102 -218h555zM735 410v63l-203 -12q-139 -8 -207.5 -49t-68.5 -136q0 -73 53 -117.5t143 -44.5q119 0 201 84.5t82 211.5z" />
    <glyph glyph-name="ccedilla" unicode="&#xe7;" horiz-adv-x="946" 
d="M864 47q-118 -71 -280 -71q-219 0 -353.5 142.5t-134.5 369.5q0 253 145 406.5t387 153.5q135 0 238 -50v-168q-114 80 -244 80q-157 0 -257.5 -112.5t-100.5 -295.5q0 -180 94.5 -284t253.5 -104q134 0 252 89v-156zM778 -256q0 -176 -275 -176q-38 0 -65 2v90
q43 -6 70 -6q141 0 141 90q0 78 -129 78q-10 0 -41 -4v182h108v-104q88 0 139.5 -40t51.5 -112z" />
    <glyph glyph-name="egrave" unicode="&#xe8;" horiz-adv-x="1071" 
d="M989 471h-723q4 -171 92 -264t242 -93q173 0 318 114v-154q-135 -98 -357 -98q-217 0 -341 139.5t-124 392.5q0 239 135.5 389.5t336.5 150.5t311 -130t110 -361v-86zM821 610q-1 142 -68.5 221t-187.5 79q-116 0 -197 -83t-100 -217h553zM725 1218h-127l-262 328h168z
" />
    <glyph glyph-name="eacute" unicode="&#xe9;" horiz-adv-x="1071" 
d="M989 471h-723q4 -171 92 -264t242 -93q173 0 318 114v-154q-135 -98 -357 -98q-217 0 -341 139.5t-124 392.5q0 239 135.5 389.5t336.5 150.5t311 -130t110 -361v-86zM821 610q-1 142 -68.5 221t-187.5 79q-116 0 -197 -83t-100 -217h553zM795 1546l-262 -328h-127
l223 328h166z" />
    <glyph glyph-name="ecircumflex" unicode="&#xea;" horiz-adv-x="1071" 
d="M989 471h-723q4 -171 92 -264t242 -93q173 0 318 114v-154q-135 -98 -357 -98q-217 0 -341 139.5t-124 392.5q0 239 135.5 389.5t336.5 150.5t311 -130t110 -361v-86zM821 610q-1 142 -68.5 221t-187.5 79q-116 0 -197 -83t-100 -217h553zM840 1218h-122l-164 230
l-165 -230h-113l215 332h133z" />
    <glyph glyph-name="edieresis" unicode="&#xeb;" horiz-adv-x="1071" 
d="M989 471h-723q4 -171 92 -264t242 -93q173 0 318 114v-154q-135 -98 -357 -98q-217 0 -341 139.5t-124 392.5q0 239 135.5 389.5t336.5 150.5t311 -130t110 -361v-86zM821 610q-1 142 -68.5 221t-187.5 79q-116 0 -197 -83t-100 -217h553zM746 1218q-40 0 -69 28t-29 71
q0 42 28 70t68 28q42 0 71 -28.5t29 -69.5t-28 -70t-70 -29zM362 1218q-42 0 -71.5 29.5t-29.5 69.5q0 42 28.5 70t69.5 28t71 -28.5t30 -69.5t-29 -70t-69 -29z" />
    <glyph glyph-name="igrave" unicode="&#xec;" horiz-adv-x="496" 
d="M330 0h-164v1024h164v-1024zM369 1218h-127l-262 328h168z" />
    <glyph glyph-name="iacute" unicode="&#xed;" horiz-adv-x="496" 
d="M330 0h-164v1024h164v-1024zM477 1546l-262 -328h-127l223 328h166z" />
    <glyph glyph-name="icircumflex" unicode="&#xee;" horiz-adv-x="496" 
d="M330 0h-164v1024h164v-1024zM519 1218h-122l-164 230l-165 -230h-113l215 332h133z" />
    <glyph glyph-name="idieresis" unicode="&#xef;" horiz-adv-x="496" 
d="M330 0h-164v1024h164v-1024zM430 1218q-40 0 -69 28t-29 71q0 42 28 70t68 28q42 0 71 -28.5t29 -69.5t-28 -70t-70 -29zM46 1218q-42 0 -71.5 29.5t-29.5 69.5q0 42 28.5 70t69.5 28t71 -28.5t30 -69.5t-29 -70t-69 -29z" />
    <glyph glyph-name="eth" unicode="&#xf0;" horiz-adv-x="1145" 
d="M786 968l4 3q-90 162 -198 266l-299 -151l-51 98l270 131q-118 105 -264 201h221q75 -52 172 -136l289 144l55 -94l-264 -130q327 -307 327 -774q0 -240 -129 -394t-351 -154t-347 140t-125 382q0 243 130 394.5t350 151.5q123 0 210 -78zM582 910q-148 0 -233 -108.5
t-85 -295.5q0 -181 83 -286.5t231 -105.5q139 0 220.5 108t81.5 288q0 400 -298 400z" />
    <glyph glyph-name="ntilde" unicode="&#xf1;" horiz-adv-x="1159" 
d="M1016 0h-164v584q0 326 -238 326q-123 0 -203.5 -92.5t-80.5 -233.5v-584h-164v1024h164v-170h4q116 194 336 194q168 0 257 -108.5t89 -313.5v-626zM908 1458q0 -105 -48 -171.5t-130 -66.5q-71 0 -162 52q-77 43 -119 43q-88 0 -88 -113h-94q0 107 48 171.5t134 64.5
q65 0 149 -52q74 -44 128 -44q84 0 84 116h98z" />
    <glyph glyph-name="ograve" unicode="&#xf2;" horiz-adv-x="1200" 
d="M594 -24q-227 0 -362.5 143.5t-135.5 380.5q0 258 141 403t381 145q229 0 357.5 -141t128.5 -391q0 -245 -138.5 -392.5t-371.5 -147.5zM606 910q-158 0 -250 -107.5t-92 -296.5q0 -182 93 -287t249 -105q159 0 244.5 103t85.5 293q0 192 -85.5 296t-244.5 104zM747 1218
h-127l-262 328h168z" />
    <glyph glyph-name="oacute" unicode="&#xf3;" horiz-adv-x="1200" 
d="M594 -24q-227 0 -362.5 143.5t-135.5 380.5q0 258 141 403t381 145q229 0 357.5 -141t128.5 -391q0 -245 -138.5 -392.5t-371.5 -147.5zM606 910q-158 0 -250 -107.5t-92 -296.5q0 -182 93 -287t249 -105q159 0 244.5 103t85.5 293q0 192 -85.5 296t-244.5 104zM846 1546
l-262 -328h-127l223 328h166z" />
    <glyph glyph-name="ocircumflex" unicode="&#xf4;" horiz-adv-x="1200" 
d="M594 -24q-227 0 -362.5 143.5t-135.5 380.5q0 258 141 403t381 145q229 0 357.5 -141t128.5 -391q0 -245 -138.5 -392.5t-371.5 -147.5zM606 910q-158 0 -250 -107.5t-92 -296.5q0 -182 93 -287t249 -105q159 0 244.5 103t85.5 293q0 192 -85.5 296t-244.5 104zM885 1218
h-122l-164 230l-165 -230h-113l215 332h133z" />
    <glyph glyph-name="otilde" unicode="&#xf5;" horiz-adv-x="1200" 
d="M594 -24q-227 0 -362.5 143.5t-135.5 380.5q0 258 141 403t381 145q229 0 357.5 -141t128.5 -391q0 -245 -138.5 -392.5t-371.5 -147.5zM606 910q-158 0 -250 -107.5t-92 -296.5q0 -182 93 -287t249 -105q159 0 244.5 103t85.5 293q0 192 -85.5 296t-244.5 104zM931 1458
q0 -105 -48 -171.5t-130 -66.5q-71 0 -162 52q-77 43 -119 43q-88 0 -88 -113h-94q0 107 48 171.5t134 64.5q65 0 149 -52q74 -44 128 -44q84 0 84 116h98z" />
    <glyph glyph-name="odieresis" unicode="&#xf6;" horiz-adv-x="1200" 
d="M594 -24q-227 0 -362.5 143.5t-135.5 380.5q0 258 141 403t381 145q229 0 357.5 -141t128.5 -391q0 -245 -138.5 -392.5t-371.5 -147.5zM606 910q-158 0 -250 -107.5t-92 -296.5q0 -182 93 -287t249 -105q159 0 244.5 103t85.5 293q0 192 -85.5 296t-244.5 104zM793 1218
q-40 0 -69 28t-29 71q0 42 28 70t68 28q42 0 71 -28.5t29 -69.5t-28 -70t-70 -29zM409 1218q-42 0 -71.5 29.5t-29.5 69.5q0 42 28.5 70t69.5 28t71 -28.5t30 -69.5t-29 -70t-69 -29z" />
    <glyph glyph-name="divide" unicode="&#xf7;" horiz-adv-x="1401" 
d="M708 868q-44 0 -74 30.5t-30 74.5q0 45 29 77t75 32q103 0 103 -107q0 -47 -30.5 -77t-72.5 -30zM1172 530h-940v134h940v-134zM704 112q-44 0 -75 30t-31 73q0 45 30 78t76 33q101 0 101 -109q0 -45 -29 -75t-72 -30z" />
    <glyph glyph-name="oslash" unicode="&#xf8;" horiz-adv-x="1200" 
d="M1174 1048l-168 -180q98 -138 98 -346q0 -252 -139 -399t-371 -147q-192 0 -318 102l-145 -160l-82 78l149 164q-102 137 -102 340q0 258 142 403t382 145q184 0 308 -98l162 176zM821 836q-79 74 -215 74q-159 0 -250.5 -107.5t-91.5 -296.5q0 -132 50 -224zM891 742
l-508 -552q87 -76 221 -76q163 0 248.5 104t85.5 294q0 134 -47 230z" />
    <glyph glyph-name="ugrave" unicode="&#xf9;" horiz-adv-x="1159" 
d="M994 0h-164v162h-4q-102 -186 -316 -186q-366 0 -366 436v612h163v-586q0 -324 248 -324q120 0 197.5 88.5t77.5 231.5v590h164v-1024zM705 1218h-127l-262 328h168z" />
    <glyph glyph-name="uacute" unicode="&#xfa;" horiz-adv-x="1159" 
d="M994 0h-164v162h-4q-102 -186 -316 -186q-366 0 -366 436v612h163v-586q0 -324 248 -324q120 0 197.5 88.5t77.5 231.5v590h164v-1024zM840 1546l-262 -328h-127l223 328h166z" />
    <glyph glyph-name="ucircumflex" unicode="&#xfb;" horiz-adv-x="1159" 
d="M994 0h-164v162h-4q-102 -186 -316 -186q-366 0 -366 436v612h163v-586q0 -324 248 -324q120 0 197.5 88.5t77.5 231.5v590h164v-1024zM854 1218h-122l-164 230l-165 -230h-113l215 332h133z" />
    <glyph glyph-name="udieresis" unicode="&#xfc;" horiz-adv-x="1159" 
d="M994 0h-164v162h-4q-102 -186 -316 -186q-366 0 -366 436v612h163v-586q0 -324 248 -324q120 0 197.5 88.5t77.5 231.5v590h164v-1024zM770 1218q-40 0 -69 28t-29 71q0 42 28 70t68 28q42 0 71 -28.5t29 -69.5t-28 -70t-70 -29zM386 1218q-42 0 -71.5 29.5t-29.5 69.5
q0 42 28.5 70t69.5 28t71 -28.5t30 -69.5t-29 -70t-69 -29z" />
    <glyph glyph-name="yacute" unicode="&#xfd;" horiz-adv-x="991" 
d="M981 1024l-471 -1188q-126 -318 -354 -318q-64 0 -107 13v147q53 -18 97 -18q124 0 186 148l82 194l-400 1022h182l277 -788q5 -15 21 -78h6q5 24 20 76l291 790h170zM762 1546l-262 -328h-127l223 328h166z" />
    <glyph glyph-name="thorn" unicode="&#xfe;" horiz-adv-x="1204" 
d="M334 148h-4v-619h-164v1987h164v-672h4q121 204 354 204q198 0 309 -137.5t111 -368.5q0 -257 -125 -411.5t-342 -154.5q-199 0 -307 172zM330 561v-143q0 -127 82.5 -215.5t209.5 -88.5q149 0 233.5 114t84.5 317q0 171 -79 268t-214 97q-143 0 -230 -99.5t-87 -249.5z
" />
    <glyph glyph-name="ydieresis" unicode="&#xff;" horiz-adv-x="991" 
d="M981 1024l-471 -1188q-126 -318 -354 -318q-64 0 -107 13v147q53 -18 97 -18q124 0 186 148l82 194l-400 1022h182l277 -788q5 -15 21 -78h6q5 24 20 76l291 790h170zM689 1218q-40 0 -69 28t-29 71q0 42 28 70t68 28q42 0 71 -28.5t29 -69.5t-28 -70t-70 -29zM305 1218
q-42 0 -71.5 29.5t-29.5 69.5q0 42 28.5 70t69.5 28t71 -28.5t30 -69.5t-29 -70t-69 -29z" />
    <glyph glyph-name="dotlessi" unicode="&#x131;" horiz-adv-x="496" 
d="M330 0h-164v1024h164v-1024z" />
    <glyph glyph-name="OE" unicode="&#x152;" horiz-adv-x="1906" 
d="M1810 0h-720q-16 0 -138 -14q-98 -10 -182 -10q-312 0 -494 201t-182 523q0 346 189.5 552t514.5 206q90 0 178 -10q112 -14 114 -14h688v-152h-560v-477h518v-151h-518v-502h592v-152zM1050 160v1118q-160 28 -268 28q-229 0 -370.5 -166t-141.5 -425q0 -258 139.5 -423
t366.5 -165q116 0 274 33z" />
    <glyph glyph-name="oe" unicode="&#x153;" horiz-adv-x="1900" 
d="M1825 471h-725q3 -171 91.5 -264t242.5 -93q175 0 319 114v-154q-136 -98 -357 -98q-270 0 -382 237h-4q-131 -237 -416 -237q-229 0 -363.5 143t-134.5 379q0 258 142 404t382 146q294 0 402 -235h4q119 235 385 235q196 0 305 -131.5t109 -357.5v-88zM1657 610
q-2 142 -69 221t-183 79q-120 0 -203.5 -85.5t-99.5 -214.5h555zM606 910q-158 0 -250 -108.5t-92 -299.5q0 -180 92 -284t248 -104q159 0 245.5 102.5t86.5 291.5q0 194 -86.5 298t-243.5 104z" />
    <glyph glyph-name="Scaron" unicode="&#x160;" horiz-adv-x="1088" 
d="M121 58v198q34 -30 81.5 -54t100 -40.5t105.5 -25.5t98 -9q155 0 231.5 57.5t76.5 165.5q0 58 -25.5 101t-70.5 78.5t-106.5 68t-132.5 68.5q-75 38 -140 77t-113 86t-75.5 106.5t-27.5 139.5q0 98 43 170.5t113 119.5t159.5 70t182.5 23q212 0 309 -51v-189
q-127 88 -326 88q-55 0 -110 -11.5t-98 -37.5t-70 -67t-27 -100q0 -55 20.5 -95t60.5 -73t97.5 -64t132.5 -68q77 -38 146 -80t121 -93t82.5 -113t30.5 -142q0 -106 -41.5 -179.5t-112 -119.5t-162.5 -66.5t-194 -20.5q-34 0 -84 5.5t-102 16t-98.5 26t-74.5 34.5zM826 1898
l-214 -330h-132l-216 330h115l164 -229l164 229h119z" />
    <glyph glyph-name="scaron" unicode="&#x161;" horiz-adv-x="869" 
d="M104 37v176q134 -99 295 -99q216 0 216 144q0 41 -18.5 69.5t-50 50.5t-74 39.5t-91.5 36.5q-68 27 -119.5 54.5t-86 62t-52 78.5t-17.5 103q0 72 33 127.5t88 93t125.5 56.5t145.5 19q133 0 238 -46v-166q-113 74 -260 74q-46 0 -83 -10.5t-63.5 -29.5t-41 -45.5
t-14.5 -58.5q0 -40 14.5 -67t42.5 -48t68 -38t91 -37q68 -26 122 -53.5t92 -62t58.5 -79.5t20.5 -107q0 -76 -33.5 -132t-89.5 -93t-129 -55t-153 -18q-158 0 -274 61zM682 1548l-214 -330h-132l-216 330h115l164 -229l164 229h119z" />
    <glyph glyph-name="Ydieresis" unicode="&#x178;" horiz-adv-x="1132" 
d="M1120 1434l-473 -904v-530h-168v526l-461 908h191l321 -648q6 -12 35 -88h3q10 34 38 88l336 648h178zM759 1565q-40 0 -69 28t-29 71q0 42 28 70t68 28q42 0 71 -28.5t29 -69.5t-28 -70t-70 -29zM375 1565q-42 0 -71.5 29.5t-29.5 69.5q0 42 28.5 70t69.5 28t71 -28.5
t30 -69.5t-29 -70t-69 -29z" />
    <glyph glyph-name="Zcaron" unicode="&#x17d;" horiz-adv-x="1168" 
d="M1124 1394l-840 -1242h820v-152h-1071v47l833 1235h-766v152h1024v-40zM900 1895l-214 -330h-132l-216 330h115l164 -229l164 229h119z" />
    <glyph glyph-name="zcaron" unicode="&#x17e;" horiz-adv-x="926" 
d="M880 977l-606 -837h600v-140h-841v51l606 833h-549v140h790v-47zM782 1548l-214 -330h-132l-216 330h115l164 -229l164 229h119z" />
    <glyph glyph-name="florin" unicode="&#x192;" horiz-adv-x="1104" 
d="M952 1266q-48 28 -108 28q-146 0 -170 -160l-31 -208h166v-138h-187l-90 -648q-58 -418 -348 -418q-31 0 -90 16v143q36 -21 86 -21q150 0 190 292l91 636h-103v138h124l28 219q17 131 104.5 210t221.5 79q64 0 116 -19v-149z" />
    <glyph glyph-name="circumflex" unicode="&#x2c6;" horiz-adv-x="760" 
d="M656 1218h-122l-164 230l-165 -230h-113l215 332h133z" />
    <glyph glyph-name="caron" unicode="&#x2c7;" horiz-adv-x="760" 
d="M664 1548l-214 -330h-132l-216 330h115l164 -229l164 229h119z" />
    <glyph glyph-name="ring" unicode="&#x2da;" horiz-adv-x="574" 
d="M284 1176q-87 0 -144.5 52.5t-57.5 137.5q0 90 59 144t150 54q89 0 146 -54t57 -138t-61 -140t-149 -56zM284 1483q-48 0 -80 -32.5t-32 -80.5q0 -112 112 -112q50 0 83 32t33 80q0 49 -33 81t-83 32z" />
    <glyph glyph-name="tilde" unicode="&#x2dc;" horiz-adv-x="690" 
d="M676 1458q0 -105 -48 -171.5t-130 -66.5q-71 0 -162 52q-77 43 -119 43q-88 0 -88 -113h-94q0 107 48 171.5t134 64.5q65 0 149 -52q74 -44 128 -44q84 0 84 116h98z" />
    <glyph glyph-name="uni0305" unicode="&#x305;" horiz-adv-x="0" 
d="M425 1396h-850v120h850v-120z" />
    <glyph glyph-name="uni1680" unicode="&#x1680;" horiz-adv-x="858" 
d="M898 566h-938v60h938v-60z" />
    <glyph glyph-name="uni1681" unicode="&#x1681;" horiz-adv-x="590" 
d="M630 566h-268v-766h-134v766h-268v60h670v-60z" />
    <glyph glyph-name="uni1682" unicode="&#x1682;" horiz-adv-x="858" 
d="M898 566h-268v-766h-134v766h-134v-766h-134v766h-268v60h938v-60z" />
    <glyph glyph-name="uni1683" unicode="&#x1683;" horiz-adv-x="1126" 
d="M1166 566h-268v-766h-134v766h-134v-766h-134v766h-134v-766h-134v766h-268v60h1206v-60z" />
    <glyph glyph-name="uni1684" unicode="&#x1684;" horiz-adv-x="1394" 
d="M1434 566h-268v-766h-134v766h-134v-766h-134v766h-134v-766h-134v766h-134v-766h-134v766h-268v60h1474v-60z" />
    <glyph glyph-name="uni1685" unicode="&#x1685;" horiz-adv-x="1662" 
d="M1702 566h-268v-766h-134v766h-134v-766h-134v766h-134v-766h-134v766h-134v-766h-134v766h-134v-766h-134v766h-268v60h1742v-60z" />
    <glyph glyph-name="uni1686" unicode="&#x1686;" horiz-adv-x="590" 
d="M630 566h-670v60h268v766h134v-766h268v-60z" />
    <glyph glyph-name="uni1687" unicode="&#x1687;" horiz-adv-x="858" 
d="M898 566h-938v60h268v766h134v-766h134v766h134v-766h268v-60z" />
    <glyph glyph-name="uni1688" unicode="&#x1688;" horiz-adv-x="1126" 
d="M1166 566h-1206v60h268v766h134v-766h134v766h134v-766h134v766h134v-766h268v-60z" />
    <glyph glyph-name="uni1689" unicode="&#x1689;" horiz-adv-x="1394" 
d="M1434 566h-1474v60h268v766h134v-766h134v766h134v-766h134v766h134v-766h134v766h134v-766h268v-60z" />
    <glyph glyph-name="uni168A" unicode="&#x168a;" horiz-adv-x="1662" 
d="M1702 566h-1742v60h268v766h134v-766h134v766h134v-766h134v766h134v-766h134v766h134v-766h134v766h134v-766h268v-60z" />
    <glyph glyph-name="uni168B" unicode="&#x168b;" horiz-adv-x="590" 
d="M630 566h-276l-192 -766h-134l192 766h-260v60h276l192 766h134l-192 -766h260v-60z" />
    <glyph glyph-name="uni168C" unicode="&#x168c;" horiz-adv-x="858" 
d="M898 566h-276l-192 -766h-134l192 766h-134l-192 -766h-134l192 766h-260v60h276l192 766h134l-192 -766h134l192 766h134l-192 -766h260v-60z" />
    <glyph glyph-name="uni168D" unicode="&#x168d;" horiz-adv-x="1126" 
d="M1166 566h-276l-192 -766h-134l192 766h-134l-192 -766h-134l192 766h-134l-192 -766h-134l192 766h-260v60h276l192 766h134l-192 -766h134l192 766h134l-192 -766h134l192 766h134l-192 -766h260v-60z" />
    <glyph glyph-name="uni168E" unicode="&#x168e;" horiz-adv-x="1394" 
d="M1434 566h-276l-192 -766h-134l192 766h-134l-192 -766h-134l192 766h-134l-192 -766h-134l192 766h-134l-192 -766h-134l192 766h-260v60h276l192 766h134l-192 -766h134l192 766h134l-192 -766h134l192 766h134l-192 -766h134l192 766h134l-192 -766h260v-60z" />
    <glyph glyph-name="uni168F" unicode="&#x168f;" horiz-adv-x="1662" 
d="M1702 566h-276l-192 -766h-134l192 766h-134l-192 -766h-134l192 766h-134l-192 -766h-134l192 766h-134l-192 -766h-134l192 766h-134l-192 -766h-134l192 766h-260v60h276l192 766h134l-192 -766h134l192 766h134l-192 -766h134l192 766h134l-192 -766h134l192 766h134
l-192 -766h134l192 766h134l-192 -766h260v-60z" />
    <glyph glyph-name="uni1690" unicode="&#x1690;" horiz-adv-x="590" 
d="M630 566h-201l-134 -134l-134 134h-201v60h201l134 134l134 -134h201v-60z" />
    <glyph glyph-name="uni1691" unicode="&#x1691;" horiz-adv-x="858" 
d="M898 566h-201l-134 -134l-134 134l-134 -134l-134 134h-201v60h201l134 134l134 -134l134 134l134 -134h201v-60z" />
    <glyph glyph-name="uni1692" unicode="&#x1692;" horiz-adv-x="1126" 
d="M1166 566h-201l-134 -134l-134 134l-134 -134l-134 134l-134 -134l-134 134h-201v60h201l134 134l134 -134l134 134l134 -134l134 134l134 -134h201v-60z" />
    <glyph glyph-name="uni1693" unicode="&#x1693;" horiz-adv-x="1394" 
d="M1434 566h-201l-134 -134l-134 134l-134 -134l-134 134l-134 -134l-134 134l-134 -134l-134 134h-201v60h201l134 134l134 -134l134 134l134 -134l134 134l134 -134l134 134l134 -134h201v-60z" />
    <glyph glyph-name="uni1694" unicode="&#x1694;" horiz-adv-x="1662" 
d="M1702 566h-201l-134 -134l-134 134l-134 -134l-134 134l-134 -134l-134 134l-134 -134l-134 134l-134 -134l-134 134h-201v60h201l134 134l134 -134l134 134l134 -134l134 134l134 -134l134 134l134 -134l134 134l134 -134h201v-60z" />
    <glyph glyph-name="uni1695" unicode="&#x1695;" horiz-adv-x="590" 
d="M630 566h-260l192 -766h-134l-133 529l-133 -529h-134l192 766h-260v60h260l-192 766h134l133 -529l133 529h134l-192 -766h260v-60z" />
    <glyph glyph-name="uni1696" unicode="&#x1696;" horiz-adv-x="858" 
d="M898 566h-56l-413 -766l-413 766h-56v60h56l413 766l413 -766h56v-60zM708 626l-279 518l-279 -518h558zM708 566h-558l279 -518z" />
    <glyph glyph-name="uni1697" unicode="&#x1697;" horiz-adv-x="1126" 
d="M1166 566h-804v-632h402v264h-201v134h335v-532h-670v766h-268v60h1206v-60z" />
    <glyph glyph-name="uni1698" unicode="&#x1698;" horiz-adv-x="1126" 
d="M1166 566h-104l-278 -343l342 -423h-154l-265 328l-67 -83l198 -245h-154l-121 150l-121 -150h-154l198 245l-67 83l-265 -328h-154l342 423l-278 343h-104v60h1206v-60zM908 566h-134l-134 -165l67 -83zM620 566h-114l57 -70zM486 401l-134 165h-134l201 -248zM630 223
l-67 83l-67 -83l67 -83z" />
    <glyph glyph-name="uni1699" unicode="&#x1699;" horiz-adv-x="1394" 
d="M1434 566h-1474v60h268v134h-134v134h134v134h-134v134h134v134h-134v134h134v134h-134v134h134v134h134v-134h134v134h134v-134h134v134h134v-134h134v134h134v-134h134v-134h-134v-134h134v-134h-134v-134h134v-134h-134v-134h134v-134h-134v-134h268v-60zM1032 1430
v134h-134v-134h134zM764 1430v134h-134v-134h134zM1032 1162v134h-134v-134h134zM496 1430v134h-134v-134h134zM764 1162v134h-134v-134h134zM1032 894v134h-134v-134h134zM496 1162v134h-134v-134h134zM1032 626v134h-134v-134h134zM764 894v134h-134v-134h134zM496 894
v134h-134v-134h134zM764 626v134h-134v-134h134zM496 626v134h-134v-134h134z" />
    <glyph glyph-name="uni169A" unicode="&#x169a;" horiz-adv-x="1126" 
d="M1166 566h-1206v60h1206v-60zM961 372h-796v134h796v-134z" />
    <glyph glyph-name="uni169B" unicode="&#x169b;" horiz-adv-x="858" 
d="M898 566h-351l-413 -766h-134l429 796l-429 796h134l413 -766h351v-60z" />
    <glyph glyph-name="uni169C" unicode="&#x169c;" horiz-adv-x="858" 
d="M858 -200h-134l-413 766h-351v60h351l413 766h134l-429 -796z" />
    <glyph glyph-name="uni16A0" unicode="&#x16a0;" horiz-adv-x="1341" 
d="M356 985q79 15 149.5 54t123 96t83 130t30.5 157v12h165v-16q0 -109 -40.5 -205t-113 -174t-174 -134t-223.5 -86v-188q101 20 194.5 58.5t175.5 93.5t150 124.5t116.5 150.5t75 173t26.5 191v12h165v-16q0 -111 -29 -217.5t-83.5 -203.5t-133.5 -182t-179.5 -153.5
t-220.5 -117.5t-257 -75v-469h-168v1434h168v-449z" />
    <glyph glyph-name="uni16A1" unicode="&#x16a1;" horiz-adv-x="1341" 
d="M356 985q79 15 149.5 54t123 96t83 130t30.5 157v12h165v-16q0 -109 -40.5 -205t-113 -174t-174 -134t-223.5 -86v-188q101 20 194.5 58.5t175.5 93.5t150 124.5t116.5 150.5t75 173t26.5 191v12h165v-16q0 -111 -29 -217.5t-83.5 -203.5t-133.5 -182t-179.5 -153.5
t-220.5 -117.5t-257 -75v-469h-168v1434h168v-449zM535 1230q-43 0 -71 29.5t-28 72.5q0 20 7.5 38.5t20.5 32.5t31.5 22.5t39.5 8.5t39.5 -8.5t32 -22.5t21.5 -32.5t8 -38.5q0 -43 -29 -72.5t-72 -29.5z" />
    <glyph glyph-name="uni16A2" unicode="&#x16a2;" horiz-adv-x="1220" 
d="M874 779q0 101 -28 193t-84 162t-140.5 111.5t-196.5 41.5h-69v-1287h-168v1434h241q142 0 255.5 -45.5t193 -130t122 -204.5t42.5 -269v-785h-168v779z" />
    <glyph glyph-name="uni16A3" unicode="&#x16a3;" horiz-adv-x="1066" 
d="M355 1300h-9q5 -66 7.5 -138t2.5 -138v-1024h-168v1434h293l583 -1434h-190zM504 420h148v-420h-148v420z" />
    <glyph glyph-name="uni16A4" unicode="&#x16a4;" horiz-adv-x="1220" 
d="M874 779q0 101 -28 193t-84 162t-140.5 111.5t-196.5 41.5h-69v-1287h-168v1434h241q142 0 255.5 -45.5t193 -130t122 -204.5t42.5 -269v-785h-168v779zM614 641q-43 0 -71 29.5t-28 72.5q0 20 7.5 38.5t20.5 32.5t31.5 22.5t39.5 8.5t39.5 -8.5t32 -22.5t21.5 -32.5
t8 -38.5q0 -43 -29 -72.5t-72 -29.5z" />
    <glyph glyph-name="uni16A5" unicode="&#x16a5;" horiz-adv-x="1260" 
d="M914 779q0 101 -29.5 193t-87.5 162t-144 111.5t-198 41.5h-99v-246q89 -6 157 -30.5t113.5 -79.5t69 -145t23.5 -226v-560h-168v554q0 87 -9 148t-31.5 101t-60 61t-94.5 28v-892h-168v1434h271q142 0 257 -45.5t196.5 -130t125.5 -204.5t44 -269v-785h-168v779z" />
    <glyph glyph-name="uni16A6" unicode="&#x16a6;" horiz-adv-x="976" 
d="M356 0h-168v1434h168v-176q133 -19 233.5 -62.5t168 -108.5t102 -151t34.5 -189q0 -104 -34.5 -189.5t-102 -151t-168 -108.5t-233.5 -62v-236zM356 387q179 34 270.5 126.5t91.5 233.5q0 140 -91.5 232t-270.5 128v-720z" />
    <glyph glyph-name="uni16A7" unicode="&#x16a7;" horiz-adv-x="976" 
d="M531 645q-43 0 -71 29.5t-28 72.5q0 20 7.5 38.5t20.5 32.5t31.5 22.5t39.5 8.5t39.5 -8.5t32 -22.5t21.5 -32.5t8 -38.5q0 -43 -29 -72.5t-72 -29.5zM356 0h-168v1434h168v-176q133 -19 233.5 -62.5t168 -108.5t102 -151t34.5 -189q0 -104 -34.5 -189.5t-102 -151
t-168 -108.5t-233.5 -62v-236zM356 387q179 34 270.5 126.5t91.5 233.5q0 140 -91.5 232t-270.5 128v-720z" />
    <glyph glyph-name="uni16A8" unicode="&#x16a8;" horiz-adv-x="760" 
d="M356 1060l322 -117v-165l-322 115v-893h-168v1434h168l322 -117v-167l-322 117v-207z" />
    <glyph glyph-name="uni16A9" unicode="&#x16a9;" horiz-adv-x="1081" 
d="M999 1433v-167l-321 -116l-322 117v-207l322 -117l321 116v-167l-321 -114l-322 115v-893h-168v1434h168l322 -117z" />
    <glyph glyph-name="uni16AA" unicode="&#x16aa;" horiz-adv-x="1081" 
d="M999 1433v-167l-321 -116l-322 117v-207l322 -117v-165l-322 115v-893h-168v1434h168l322 -117z" />
    <glyph glyph-name="uni16AB" unicode="&#x16ab;" horiz-adv-x="956" 
d="M356 1060l518 -186v-165l-518 184v-893h-168v1434h168l518 -186v-167l-518 186v-207z" />
    <glyph glyph-name="uni16AC" unicode="&#x16ac;" horiz-adv-x="976" 
d="M82 1157l322 -117v394h168v-455l322 -116v-165l-322 115v-208l322 -116v-165l-322 115v-439h-168v500l-322 116v167l322 -117v208l-322 116v167z" />
    <glyph glyph-name="uni16AD" unicode="&#x16ad;" horiz-adv-x="760" 
d="M188 1434h168v-455l322 -116v-165l-322 115v-208l322 -116v-165l-322 115v-439h-168v1434z" />
    <glyph glyph-name="uni16AE" unicode="&#x16ae;" horiz-adv-x="760" 
d="M572 0h-168v439l-322 -115v165l322 116v208l-322 -115v165l322 116v455h168v-1434z" />
    <glyph glyph-name="uni16AF" unicode="&#x16af;" horiz-adv-x="976" 
d="M894 990l-322 -116v-208l322 117v-167l-322 -116v-500h-168v440l-322 -116v165l322 116v209l-322 -116v165l322 116v455h168v-394l322 117v-167z" />
    <glyph glyph-name="uni16B0" unicode="&#x16b0;" horiz-adv-x="976" 
d="M894 990l-322 -116v-874h-168v440l-322 -116v165l322 116v209l-322 -116v165l322 116v455h168v-394l322 117v-167z" />
    <glyph glyph-name="uni16B1" unicode="&#x16b1;" horiz-adv-x="1076" 
d="M366 1262h-10v-1262h-168v1434h168l612 -315v-95l-324 -303l383 -721h-203l-347 700v53l302 294z" />
    <glyph glyph-name="uni16B2" unicode="&#x16b2;" horiz-adv-x="647" 
d="M557 344h-186l-299 336l299 344h188l-305 -344z" />
    <glyph glyph-name="uni16B3" unicode="&#x16b3;" horiz-adv-x="824" 
d="M356 724l466 -724h-192l-139 227q-23 38 -43 72t-37.5 67t-33.5 65t-32 66h-4q6 -60 10.5 -127.5t4.5 -142.5v-227h-168v1434h168v-710z" />
    <glyph glyph-name="uni16B4" unicode="&#x16b4;" horiz-adv-x="1110" 
d="M356 807q102 25 192 74t157.5 124t107 177.5t39.5 235.5v16h176v-12q0 -146 -49 -275t-137.5 -230.5t-212 -172t-273.5 -99.5v-645h-168v1434h168v-627z" />
    <glyph glyph-name="uni16B5" unicode="&#x16b5;" horiz-adv-x="1110" 
d="M356 807q102 25 192 74t157.5 124t107 177.5t39.5 235.5v16h176v-12q0 -146 -49 -275t-137.5 -230.5t-212 -172t-273.5 -99.5v-645h-168v1434h168v-627zM577 1108q-43 0 -71 29.5t-28 72.5q0 20 7.5 38.5t20.5 32.5t31.5 22.5t39.5 8.5t39.5 -8.5t32 -22.5t21.5 -32.5
t8 -38.5q0 -43 -29 -72.5t-72 -29.5z" />
    <glyph glyph-name="uni16B6" unicode="&#x16b6;" horiz-adv-x="1110" 
d="M47 728q0 72 39 128t102 81v497h168v-497q35 -14 63 -38.5t47 -56.5q82 33 153 84t122.5 122.5t81 163.5t29.5 206v16h176v-12q0 -129 -38.5 -244.5t-108.5 -211.5t-169 -168.5t-220 -115.5q-11 -57 -47.5 -100t-88.5 -63v-519h-168v519q-31 12 -57 33t-44.5 48t-29 59.5
t-10.5 68.5z" />
    <glyph glyph-name="uni16B7" unicode="&#x16b7;" horiz-adv-x="988" 
d="M958 0h-191l-249 515q-6 12 -11.5 30.5t-13.5 41.5h-3q-4 -11 -9.5 -29.5t-17.5 -42.5l-255 -515h-181l373 721l-351 713h189l220 -472q11 -25 21.5 -50t18.5 -51h3q12 32 22.5 58.5t20.5 46.5l227 468h181l-359 -711z" />
    <glyph glyph-name="uni16B8" unicode="&#x16b8;" horiz-adv-x="988" 
d="M745 1024l179 -303l-181 -295l215 -426h-191l-249 515q-6 12 -11.5 30.5t-13.5 41.5h-3q-4 -11 -9.5 -29.5t-17.5 -42.5l-255 -515h-181l222 430l-177 291l179 303l-202 410h189l220 -472q11 -25 21.5 -50t18.5 -51h3q12 32 22.5 58.5t20.5 46.5l227 468h181zM682 546
l104 175l-104 178l-99 -176zM312 550l98 171l-97 177l-103 -177z" />
    <glyph glyph-name="uni16B9" unicode="&#x16b9;" horiz-adv-x="1076" 
d="M188 0v1434h168l612 -315v-95l-612 -382v-642h-168zM366 1262h-10v-443h10l392 241z" />
    <glyph glyph-name="uni16BA" unicode="&#x16ba;" horiz-adv-x="1230" 
d="M1042 0h-168v563l-518 186v-749h-168v1434h168v-518l518 -186v704h168v-1434z" />
    <glyph glyph-name="uni16BB" unicode="&#x16bb;" horiz-adv-x="1230" 
d="M1042 0h-168v376l-518 186v-562h-168v1434h168v-331l518 -186v517h168v-1434zM356 729l518 -186v207l-518 186v-207z" />
    <glyph glyph-name="uni16BC" unicode="&#x16bc;" horiz-adv-x="976" 
d="M82 1157l223 -177q29 -23 57 -49t52 -51q-4 38 -6 75.5t-2 75.5v403h164v-403q0 -38 -2 -75.5t-6 -75.5q24 25 52 51t57 49l223 177v-191l-131 -103q-52 -42 -101 -71t-92 -50v-4q43 -22 92 -51t101 -70l131 -104v-189l-223 177q-29 23 -57 48.5t-52 50.5q4 -38 6 -75.5
t2 -75.5v-449h-164v449q0 38 2 75.5t6 75.5q-24 -25 -52 -50.5t-57 -48.5l-223 -177v189l131 104q52 41 101 70t92 51v4q-43 21 -92 50t-101 71l-131 103v191z" />
    <glyph glyph-name="uni16BD" unicode="&#x16bd;" horiz-adv-x="544" 
d="M47 728q0 72 39 128t102 81v497h168v-497q63 -25 102 -81t39 -128q0 -36 -10.5 -68.5t-29 -59.5t-44.5 -48t-57 -33v-519h-168v519q-31 12 -57 33t-44.5 48t-29 59.5t-10.5 68.5z" />
    <glyph glyph-name="uni16BE" unicode="&#x16be;" horiz-adv-x="976" 
d="M82 970l322 -117v581h168v-642l322 -116v-165l-322 115v-626h-168v687l-322 116v167z" />
    <glyph glyph-name="uni16BF" unicode="&#x16bf;" horiz-adv-x="760" 
d="M188 1434h168v-642l322 -116v-165l-322 115v-626h-168v1434z" />
    <glyph glyph-name="uni16C0" unicode="&#x16c0;" horiz-adv-x="976" 
d="M82 970l242 -88q34 37 80 55v497h168v-497q60 -24 98.5 -76t42.5 -120l181 -65v-165l-227 81q-18 -24 -42 -43t-53 -30v-519h-168v519q-31 12 -57 33t-44.5 48t-29 59.5t-10.5 68.5v10l-181 65v167z" />
    <glyph glyph-name="uni16C1" unicode="&#x16c1;" horiz-adv-x="544" 
d="M356 0h-168v1434h168v-1434z" />
    <glyph glyph-name="uni16C2" unicode="&#x16c2;" horiz-adv-x="544" 
d="M47 728q0 72 39 128t102 81v497h168v-497q63 -25 102 -81t39 -128q0 -36 -10.5 -68.5t-29 -59.5t-44.5 -48t-57 -33v-519h-168v519q-31 12 -57 33t-44.5 48t-29 59.5t-10.5 68.5z" />
    <glyph glyph-name="uni16C3" unicode="&#x16c3;" horiz-adv-x="1033" 
d="M557 511h-186l-299 336l299 344h188l-305 -344zM961 570l-301 -338h-186l303 338l-303 342h186z" />
    <glyph glyph-name="uni16C4" unicode="&#x16c4;" horiz-adv-x="748" 
d="M456 1163l315 -442l-315 -443v-278h-164v278l-315 443l315 442v271h164v-271zM296 466h4q-3 35 -5.5 77.5t-2.5 107.5v147q0 31 0.5 55.5t1 45t2 38.5t3.5 36h-4l-177 -252zM453 973h-4q3 -35 5 -74.5t2 -100.5v-147q0 -65 -1.5 -107.5t-5.5 -77.5h3l178 255z" />
    <glyph glyph-name="uni16C5" unicode="&#x16c5;" horiz-adv-x="976" 
d="M894 803l-322 -116v-687h-168v627l-322 -116v165l322 116v642h168v-581l322 117v-167z" />
    <glyph glyph-name="uni16C6" unicode="&#x16c6;" horiz-adv-x="760" 
d="M572 0h-168v627l-322 -116v165l322 116v642h168v-1434z" />
    <glyph glyph-name="uni16C7" unicode="&#x16c7;" horiz-adv-x="976" 
d="M404 1434h139l351 -126v-165l-322 115v-1258h-141l-349 126v167l322 -117v1258z" />
    <glyph glyph-name="uni16C8" unicode="&#x16c8;" horiz-adv-x="1081" 
d="M678 117l-322 -117h-168v1434h168l322 -117l321 116v-167l-321 -116l-322 117v-1100l322 117l321 -116v-167z" />
    <glyph glyph-name="uni16C9" unicode="&#x16c9;" horiz-adv-x="1104" 
d="M636 0h-168v710l-466 724h192l139 -227q23 -38 43 -72.5t37 -67t33 -64.5t31 -66h5q-6 60 -10 127.5t-4 142.5v227h168v-227q0 -75 -4.5 -142.5t-10.5 -127.5h4q16 34 32 66t33.5 65t37.5 67t43 72l139 227h192l-466 -724v-710z" />
    <glyph glyph-name="uni16CA" unicode="&#x16ca;" horiz-adv-x="785" 
d="M482 1l-434 343v14l399 396l-395 327v14l428 339h237l-434 -343l373 -308v-35l-376 -376l469 -371h-267z" />
    <glyph glyph-name="uni16CB" unicode="&#x16cb;" horiz-adv-x="1170" 
d="M188 1434h168v-693l486 175h140v-916h-168v739l-486 -175h-140v870z" />
    <glyph glyph-name="uni16CC" unicode="&#x16cc;" horiz-adv-x="544" 
d="M356 717h-168v717h168v-717z" />
    <glyph glyph-name="uni16CD" unicode="&#x16cd;" horiz-adv-x="544" 
d="M47 728q0 72 39 128t102 81v497h168v-497q63 -25 102 -81t39 -128q0 -47 -17.5 -88t-48 -71.5t-71.5 -48t-88 -17.5t-88 17.5t-71.5 48t-48 71.5t-17.5 88z" />
    <glyph glyph-name="uni16CE" unicode="&#x16ce;" horiz-adv-x="976" 
d="M572 676l322 254v-189l-406 -322l-406 322v189l322 -254v758h168v-758z" />
    <glyph glyph-name="uni16CF" unicode="&#x16cf;" horiz-adv-x="976" 
d="M572 0h-168v1208l-322 -254v189l406 322l406 -322v-189l-322 254v-1208z" />
    <glyph glyph-name="uni16D0" unicode="&#x16d0;" horiz-adv-x="760" 
d="M572 0h-168v1208l-322 -254v189l367 291h123v-1434z" />
    <glyph glyph-name="uni16D1" unicode="&#x16d1;" horiz-adv-x="760" 
d="M263 728q0 72 39 128t102 81v271l-322 -254v189l367 291h123v-497q63 -25 102 -81t39 -128q0 -36 -10.5 -68.5t-29 -59.5t-44.5 -48t-57 -33v-519h-168v519q-31 12 -57 33t-44.5 48t-29 59.5t-10.5 68.5z" />
    <glyph glyph-name="uni16D2" unicode="&#x16d2;" horiz-adv-x="1076" 
d="M188 0v1434h178l592 -315v-95l-431 -274v-4l441 -286v-95l-612 -365h-168zM352 1282v-486l411 264zM352 689v-532l424 255z" />
    <glyph glyph-name="uni16D3" unicode="&#x16d3;" horiz-adv-x="760" 
d="M678 990l-322 -116v-208l322 117v-167l-322 -116v-500h-168v1434h168v-394l322 117v-167z" />
    <glyph glyph-name="uni16D4" unicode="&#x16d4;" horiz-adv-x="1089" 
d="M499 1434q105 0 192 -23.5t149.5 -71t97 -118.5t34.5 -167q0 -68 -20.5 -123.5t-53.5 -97t-75.5 -68t-86.5 -37.5v-8q45 -7 89.5 -28.5t80 -59t58 -92.5t22.5 -128q0 -96 -37 -172t-102.5 -129.5t-154.5 -82t-193 -28.5h-311v1434h311zM508 796q137 0 212.5 64t75.5 192
q0 115 -74.5 172.5t-222.5 57.5h-147v-486h156zM352 638v-486h147q148 0 229.5 67t81.5 195q0 64 -21.5 107t-61.5 69t-95.5 37t-123.5 11h-156zM557 306q-43 0 -71 29.5t-28 72.5q0 20 7.5 38.5t20.5 32.5t31.5 22.5t39.5 8.5t39.5 -8.5t32 -22.5t21.5 -32.5t8 -38.5
q0 -43 -29 -72.5t-72 -29.5zM557 947q-43 0 -71 29.5t-28 72.5q0 20 7.5 38.5t20.5 32.5t31.5 22.5t39.5 8.5t39.5 -8.5t32 -22.5t21.5 -32.5t8 -38.5q0 -43 -29 -72.5t-72 -29.5z" />
    <glyph glyph-name="uni16D5" unicode="&#x16d5;" horiz-adv-x="1040" 
d="M1038 0h-220l-458 707h-4v-707h-168v1434h168v-674h4l445 674h195l-472 -686z" />
    <glyph glyph-name="uni16D6" unicode="&#x16d6;" horiz-adv-x="1294" 
d="M188 0v1434h163l298 -358l298 358h159v-1434h-168v976q0 33 0.5 67t2 66.5t3.5 61t4 49.5h-10q-26 -37 -50 -71.5t-56 -72.5l-152 -182h-62l-152 182q-32 39 -58 75.5t-53 74.5h-9q2 -22 4 -51t3.5 -62t2 -68t0.5 -69v-976h-168z" />
    <glyph glyph-name="uni16D7" unicode="&#x16d7;" horiz-adv-x="1294" 
d="M1106 1434v-1434h-168v509l-289 348l-293 -348v-509h-168v1434h163l298 -358l298 358h159zM466 1076q-32 39 -58 75.5t-53 74.5h-9q5 -37 7.5 -74.5t2.5 -75.5v-219q0 -38 -2.5 -75t-7.5 -73h10q26 38 52 73.5t58 74.5l91 109zM831 857q32 -39 57 -73.5t50 -71.5h10
q-5 35 -7.5 71t-2.5 74v219q0 36 2.5 72.5t7.5 71.5h-10q-26 -37 -50 -71.5t-56 -72.5l-92 -110z" />
    <glyph glyph-name="uni16D8" unicode="&#x16d8;" horiz-adv-x="1154" 
d="M493 0v880q-101 14 -173.5 59.5t-119.5 114t-69.5 154.5t-22.5 180v46h168v-46q0 -310 217 -356v402h168v-402q217 46 217 356v46h168v-46q0 -94 -22.5 -180t-69.5 -154.5t-119.5 -114t-173.5 -59.5v-880h-168z" />
    <glyph glyph-name="uni16D9" unicode="&#x16d9;" horiz-adv-x="544" 
d="M47 1233q0 47 17.5 88t48 71.5t71.5 48t88 17.5h8q45 -2 85 -20t69 -48.5t46 -70.5t17 -86q0 -36 -10.5 -68.5t-29 -59.5t-44.5 -48t-57 -33v-1024h-168v1024q-31 12 -57 33t-44.5 48t-29 59.5t-10.5 68.5z" />
    <glyph glyph-name="uni16DA" unicode="&#x16da;" horiz-adv-x="760" 
d="M188 1434h123l367 -291v-189l-322 254v-1208h-168v1434z" />
    <glyph glyph-name="uni16DB" unicode="&#x16db;" horiz-adv-x="760" 
d="M47 728q0 72 39 128t102 81v497h123l367 -291v-189l-322 254v-271q63 -25 102 -81t39 -128q0 -36 -10.5 -68.5t-29 -59.5t-44.5 -48t-57 -33v-519h-168v519q-31 12 -57 33t-44.5 48t-29 59.5t-10.5 68.5z" />
    <glyph glyph-name="uni16DC" unicode="&#x16dc;" horiz-adv-x="928" 
d="M27 694v46l437 463l437 -463v-46l-437 -463zM464 975l-239 -250l239 -257l239 257z" />
    <glyph glyph-name="uni16DD" unicode="&#x16dd;" horiz-adv-x="1002" 
d="M64 0l325 349l-325 345v46l329 349l-329 345h219l218 -231l218 231h219l-329 -345l329 -349v-46l-326 -345l326 -349h-219l-218 231l-218 -231h-219zM501 975l-239 -250l239 -257l239 257z" />
    <glyph glyph-name="uni16DE" unicode="&#x16de;" horiz-adv-x="1294" 
d="M1106 1434v-1434h-150l-307 573l-307 -573h-154v1434h163l298 -556l298 556h159zM485 878q-34 63 -68.5 132l-66.5 133h-7q4 -64 4.5 -133t0.5 -132v-305q0 -64 -0.5 -132.5t-4.5 -132.5h7q32 65 66.5 133.5t68.5 131.5l82 152zM944 1136q-32 -63 -65 -129.5t-66 -128.5
l-82 -153l81 -152q33 -62 66.5 -128.5t65.5 -129.5h7q-4 62 -4.5 128.5t-0.5 129.5v305q0 62 0.5 128.5t4.5 129.5h-7z" />
    <glyph glyph-name="uni16DF" unicode="&#x16df;" horiz-adv-x="962" 
d="M44 874l437 584l437 -584v-46l-341 -456l279 -372h-193l-182 244l-183 -244h-192l279 372l-341 456v46zM481 500l262 351l-262 351l-263 -351z" />
    <glyph glyph-name="uni16E0" unicode="&#x16e0;" horiz-adv-x="1146" 
d="M1064 1458v-195l-227 -218l-91 79q-24 21 -45.5 41.5t-43.5 48.5v-1214h-168v1216q-23 -29 -44 -50.5t-45 -41.5l-91 -79l-227 218v195l234 -220l257 220l257 -220z" />
    <glyph glyph-name="uni16E1" unicode="&#x16e1;" horiz-adv-x="976" 
d="M82 1157l223 -177q29 -23 57 -49t52 -51q-4 38 -6 75.5t-2 75.5v403h164v-403q0 -38 -2 -75.5t-6 -75.5q24 25 52 51t57 49l223 177v-191l-131 -103q-52 -42 -101 -71t-92 -50v-4q43 -22 92 -51t101 -70l131 -104v-189l-223 177q-29 23 -57 48.5t-52 50.5q4 -38 6 -75.5
t2 -75.5v-449h-164v449q0 38 2 75.5t6 75.5q-24 -25 -52 -50.5t-57 -48.5l-223 -177v189l131 104q52 41 101 70t92 51v4q-43 21 -92 50t-101 71l-131 103v191z" />
    <glyph glyph-name="uni16E2" unicode="&#x16e2;" horiz-adv-x="1146" 
d="M82 -24v195l227 218l180 -156v1201h112l229 -196l234 220v-195l-227 -218l-180 156v-1201h-112l-229 196z" />
    <glyph glyph-name="uni16E3" unicode="&#x16e3;" horiz-adv-x="1104" 
d="M636 724l466 -724h-192l-139 227q-23 38 -43 72t-37.5 67t-33.5 65t-32 66h-4q6 -60 10.5 -127.5t4.5 -142.5v-227h-168v227q0 75 4 142.5t10 127.5h-5q-15 -34 -31 -66t-33 -64.5t-37 -67t-43 -72.5l-139 -227h-192l466 724v710h168v-710z" />
    <glyph glyph-name="uni16E4" unicode="&#x16e4;" horiz-adv-x="988" 
d="M561 968h4q22 63 46.5 125t55.5 126l104 215h181l-207 -410l179 -303l-181 -295l215 -426h-191l-105 218q-32 66 -57 136.5t-40 136.5h-4v-491h-131v491h-4q-20 -66 -48 -135.5t-62 -137.5l-108 -218h-181l223 431l-178 290l179 303l-202 410h189l100 -214
q30 -65 50.5 -127t37.5 -125h4v466h131v-466zM682 546l104 175l-104 178l-99 -176zM312 550l98 171l-97 177l-103 -177z" />
    <glyph glyph-name="uni16E5" unicode="&#x16e5;" horiz-adv-x="1294" 
d="M1106 1434v-1434h-158l-302 219l-301 -219h-157v1434h157l301 -220l302 220h158zM348 599l298 -211l300 212v234l-300 211l-298 -210v-236zM946 1000v259l-186 -129zM946 175v259l-186 -130zM348 433v-258l184 129zM348 1258v-257l184 129z" />
    <glyph glyph-name="uni16E6" unicode="&#x16e6;" horiz-adv-x="1154" 
d="M661 1434v-880q101 -14 173.5 -60t119.5 -114.5t69.5 -154t22.5 -179.5v-46h-168v46q0 309 -217 355v-401h-168v401q-217 -46 -217 -355v-46h-168v46q0 94 22.5 179.5t69.5 154t119.5 114.5t173.5 60v880h168z" />
    <glyph glyph-name="uni16E7" unicode="&#x16e7;" horiz-adv-x="544" 
d="M356 0h-168v717h168v-717z" />
    <glyph glyph-name="uni16E8" unicode="&#x16e8;" horiz-adv-x="976" 
d="M572 232l322 254v-189l-406 -322l-406 322v189l322 -254v976l-322 -254v189l406 322l406 -322v-189l-322 254v-976z" />
    <glyph glyph-name="uni16E9" unicode="&#x16e9;" horiz-adv-x="1076" 
d="M720 0v642l-612 382v95l612 315h168v-1434h-168zM318 1060l392 -241h10v443h-10z" />
    <glyph glyph-name="uni16EA" unicode="&#x16ea;" horiz-adv-x="1244" 
d="M623 247v139h228v353l-486 -175h-140v484h-215v139h215v247h168v-247h229v-139h-229v-307l486 175h140v-530h215v-139h-215v-247h-168v247h-228z" />
    <glyph glyph-name="uni16EB" unicode="&#x16eb;" horiz-adv-x="600" 
d="M75 728q0 47 17.5 88t48 71.5t71.5 48t88 17.5t88 -17.5t71.5 -48t48 -71.5t17.5 -88t-17.5 -88t-48 -71.5t-71.5 -48t-88 -17.5t-88 17.5t-71.5 48t-48 71.5t-17.5 88z" />
    <glyph glyph-name="uni16EC" unicode="&#x16ec;" horiz-adv-x="444" 
d="M221 875q-48 0 -79 32.5t-31 80.5q0 22 8.5 42.5t23 36.5t34.5 25t44 9t44.5 -9t36 -25t24 -36.5t8.5 -42.5q0 -24 -8.5 -44.5t-24 -35.5t-36 -24t-44.5 -9zM221 337q-48 0 -79 32.5t-31 80.5q0 22 8.5 42.5t23 36.5t34.5 25t44 9t44.5 -9t36 -25t24 -36.5t8.5 -42.5
q0 -24 -8.5 -44.5t-24 -35.5t-36 -24t-44.5 -9z" />
    <glyph glyph-name="uni16ED" unicode="&#x16ed;" horiz-adv-x="1316" 
d="M714 775l414 80v-254l-414 80l70 -423h-252l80 423l-424 -80v254l424 -80l-80 423h252z" />
    <glyph glyph-name="uni16EE" unicode="&#x16ee;" horiz-adv-x="976" 
d="M404 1434h123l367 -291v-189l-322 254v-1208h-168v627l-322 -116v165l322 116v642z" />
    <glyph glyph-name="uni16EF" unicode="&#x16ef;" horiz-adv-x="1154" 
d="M661 1434v-402q217 46 217 356v46h168v-46q0 -94 -22.5 -180t-69.5 -154.5t-119.5 -114t-173.5 -59.5v-326q101 -14 173.5 -60t119.5 -114.5t69.5 -154t22.5 -179.5v-46h-168v46q0 309 -217 355v-401h-168v401q-217 -46 -217 -355v-46h-168v46q0 94 22.5 179.5t69.5 154
t119.5 114.5t173.5 60v326q-101 14 -173.5 59.5t-119.5 114t-69.5 154.5t-22.5 180v46h168v-46q0 -310 217 -356v402h168z" />
    <glyph glyph-name="uni16F0" unicode="&#x16f0;" horiz-adv-x="1166" 
d="M501 189q-101 11 -177 54t-127 111t-77 158.5t-26 197.5q0 115 28 208.5t80.5 163t128 112.5t170.5 58v182h164v-179q96 -11 172 -52t128 -108.5t79.5 -160.5t27.5 -208q0 -104 -26.5 -195t-78 -161.5t-127.5 -116.5t-175 -61v-192h-164v189zM896 720q0 166 -57.5 265
t-173.5 125v-777q116 26 173.5 124t57.5 263zM270 716q0 -158 59 -256.5t172 -125.5v775q-115 -27 -173 -129t-58 -264z" />
    <glyph glyph-name="uni2000" unicode="&#x2000;" horiz-adv-x="1024" 
 />
    <glyph glyph-name="uni2001" unicode="&#x2001;" horiz-adv-x="2048" 
 />
    <glyph glyph-name="uni2002" unicode="&#x2002;" horiz-adv-x="1024" 
 />
    <glyph glyph-name="uni2003" unicode="&#x2003;" horiz-adv-x="2048" 
 />
    <glyph glyph-name="uni2004" unicode="&#x2004;" horiz-adv-x="687" 
 />
    <glyph glyph-name="uni2005" unicode="&#x2005;" horiz-adv-x="512" 
 />
    <glyph glyph-name="uni2006" unicode="&#x2006;" horiz-adv-x="341" 
 />
    <glyph glyph-name="uni2007" unicode="&#x2007;" horiz-adv-x="1104" 
 />
    <glyph glyph-name="uni2008" unicode="&#x2008;" horiz-adv-x="444" 
 />
    <glyph glyph-name="uni2009" unicode="&#x2009;" horiz-adv-x="410" 
 />
    <glyph glyph-name="uni200A" unicode="&#x200a;" horiz-adv-x="256" 
 />
    <glyph glyph-name="uni200B" unicode="&#x200b;" horiz-adv-x="0" 
 />
    <glyph glyph-name="uni200C" unicode="&#x200c;" horiz-adv-x="0" 
d="M36 1750v-2158h-72v2158h72z" />
    <glyph glyph-name="uni200D" unicode="&#x200d;" horiz-adv-x="0" 
d="M36 -408h-72v1859l-134 -136l-49 49l171 169l-171 168l49 49l170 -171l170 171l49 -49l-171 -168l171 -169l-49 -49l-134 136v-1859z" />
    <glyph glyph-name="uni200E" unicode="&#x200e;" horiz-adv-x="0" 
d="M431 1535l-217 -214l-49 49l137 130h-266v-1908h-72v1979h338l-137 130l49 49z" />
    <glyph glyph-name="uni200F" unicode="&#x200f;" horiz-adv-x="0" 
d="M36 -408h-72v1908h-266l137 -130l-49 -49l-217 214l217 215l49 -49l-137 -130h338v-1979z" />
    <glyph glyph-name="uni2010" unicode="&#x2010;" horiz-adv-x="819" 
d="M690 506h-546v129h546v-129z" />
    <glyph glyph-name="uni2011" unicode="&#x2011;" horiz-adv-x="819" 
d="M690 506h-546v129h546v-129z" />
    <glyph glyph-name="figuredash" unicode="&#x2012;" horiz-adv-x="1401" 
d="M1172 530h-940v134h940v-134z" />
    <glyph glyph-name="endash" unicode="&#x2013;" horiz-adv-x="1024" 
d="M1024 506h-1024v129h1024v-129z" />
    <glyph glyph-name="emdash" unicode="&#x2014;" horiz-adv-x="2048" 
d="M2048 506h-2048v129h2048v-129z" />
    <glyph glyph-name="afii00208" unicode="&#x2015;" horiz-adv-x="2048" 
d="M2048 506h-2048v129h2048v-129z" />
    <glyph glyph-name="uni2016" unicode="&#x2016;" horiz-adv-x="811" 
d="M320 -482h-148v2048h148v-2048zM639 -482h-148v2048h148v-2048z" />
    <glyph glyph-name="underscoredbl" unicode="&#x2017;" horiz-adv-x="850" 
d="M0 -277v119h850v-119h-850zM0 -514v119h850v-119h-850z" />
    <glyph glyph-name="quoteleft" unicode="&#x2018;" horiz-adv-x="469" 
d="M364 1458l-108 -446h-150l140 446h118z" />
    <glyph glyph-name="quoteright" unicode="&#x2019;" horiz-adv-x="469" 
d="M368 1458l-140 -446h-118l111 446h147z" />
    <glyph glyph-name="quotesinglbase" unicode="&#x201a;" horiz-adv-x="469" 
d="M346 217l-141 -445h-117l110 445h148z" />
    <glyph glyph-name="quotereversed" unicode="&#x201b;" horiz-adv-x="469" 
d="M368 1012h-116l-142 446h148z" />
    <glyph glyph-name="quotedblleft" unicode="&#x201c;" horiz-adv-x="772" 
d="M668 1458l-111 -446h-147l141 446h117zM364 1458l-108 -446h-150l140 446h118z" />
    <glyph glyph-name="quotedblright" unicode="&#x201d;" horiz-adv-x="772" 
d="M672 1458l-140 -446h-118l108 446h150zM368 1458l-140 -446h-118l111 446h147z" />
    <glyph glyph-name="quotedblbase" unicode="&#x201e;" horiz-adv-x="772" 
d="M649 217l-139 -445h-119l109 445h149zM346 217l-141 -445h-117l110 445h148z" />
    <glyph glyph-name="uni201F" unicode="&#x201f;" horiz-adv-x="772" 
d="M250 1458l108 -446h-118l-140 446h150zM551 1458l111 -446h-118l-140 446h147z" />
    <glyph glyph-name="dagger" unicode="&#x2020;" horiz-adv-x="768" 
d="M728 893l-262 30l-40 -694h-76l-40 694l-262 -30v150l302 -20l-40 410h156l-40 -410l302 20v-150z" />
    <glyph glyph-name="daggerdbl" unicode="&#x2021;" horiz-adv-x="768" 
d="M728 519l-302 20l40 -310h-156l40 310l-302 -20v150l262 -30l58 192l-58 192l-262 -30v150l302 -20l-40 310h156l-40 -310l302 20v-150l-262 30l-58 -192l58 -192l262 30v-150z" />
    <glyph glyph-name="bullet" unicode="&#x2022;" horiz-adv-x="832" 
d="M418 408q-104 0 -179 73t-75 177q0 103 75 178.5t179 75.5t177 -75t73 -179t-73 -177t-177 -73z" />
    <glyph glyph-name="uni2023" unicode="&#x2023;" horiz-adv-x="832" 
d="M164 408v504l504 -254z" />
    <glyph glyph-name="onedotenleader" unicode="&#x2024;" horiz-adv-x="498" 
d="M248 -18q-46 0 -77 32t-31 78t31 79.5t77 33.5q45 0 77.5 -33.5t32.5 -79.5t-32 -78t-78 -32z" />
    <glyph glyph-name="twodotenleader" unicode="&#x2025;" horiz-adv-x="1000" 
d="M750 -18q-46 0 -78.5 32t-32.5 78t32.5 79.5t78.5 33.5q45 0 77.5 -33.5t32.5 -79.5t-32.5 -78t-77.5 -32zM248 -18q-46 0 -77 32t-31 78t31 79.5t77 33.5q45 0 77.5 -33.5t32.5 -79.5t-32 -78t-78 -32z" />
    <glyph glyph-name="ellipsis" unicode="&#x2026;" horiz-adv-x="1501" 
d="M1252 -18q-46 0 -77.5 32t-31.5 78t31.5 79.5t77.5 33.5q45 0 77.5 -33.5t32.5 -79.5t-32.5 -78t-77.5 -32zM750 -18q-46 0 -78.5 32t-32.5 78t32.5 79.5t78.5 33.5q45 0 77.5 -33.5t32.5 -79.5t-32.5 -78t-77.5 -32zM248 -18q-46 0 -77 32t-31 78t31 79.5t77 33.5
q45 0 77.5 -33.5t32.5 -79.5t-32 -78t-78 -32z" />
    <glyph glyph-name="uni2027" unicode="&#x2027;" horiz-adv-x="444" 
d="M223 510q-46 0 -78.5 33t-32.5 79q0 47 32.5 80t78.5 33q47 0 80 -33t33 -80q0 -46 -33 -79t-80 -33z" />
    <glyph glyph-name="uni2028" unicode="&#x2028;" horiz-adv-x="2577" 
d="M100 1518v379h379v-138h-241v-241h-138zM2098 1759v138h379v-379h-138v241h-241zM100 -480v379h138v-241h241v-138h-379zM2098 -480v138h241v241h138v-379h-379zM1608 -480v138h339v-138h-339zM629 -480v138h339v-138h-339zM629 1759v138h339v-138h-339zM2477 49h-138
v339h138v-339zM2477 1028h-138v339h138v-339zM1119 -480v138h339v-138h-339zM238 49h-138v339h138v-339zM1119 1759v138h339v-138h-339zM1608 1759v138h339v-138h-339zM238 539h-138v339h138v-339zM238 1028h-138v339h138v-339zM2477 539h-138v339h138v-339zM1080 811v717
h119v-614h281v-103h-400zM1080 -75v717h388v-102h-269v-202h250v-102h-250v-208h286v-103h-405zM944 116q0 -39 -13.5 -75.5t-44 -65t-79.5 -45.5t-119 -17q-23 0 -48 3.5t-48.5 9.5t-43 14t-31.5 16v130q18 -17 40.5 -30t47 -22t49 -14t47.5 -5q34 0 56.5 8t35.5 20.5
t18 28.5t5 32q0 21 -8 38.5t-25 34.5t-44 34t-65 37q-46 24 -76.5 48t-49 49.5t-26.5 52.5t-8 57q0 43 17.5 80t49.5 63.5t76.5 41.5t99.5 15q24 0 48 -2.5t45 -6.5t37.5 -9t25.5 -9v-125q-29 24 -71 37.5t-84 13.5q-56 0 -86.5 -25.5t-30.5 -64.5q0 -22 6.5 -39t21 -32
t38.5 -30.5t59 -33.5q87 -46 132.5 -94.5t45.5 -118.5zM2112 420q0 -49 -18 -92t-53 -75.5t-86 -51t-117 -18.5h-85v-258h-119v717h222q129 0 192.5 -60t63.5 -162zM1987 416q0 58 -37.5 92t-114.5 34h-82v-258h77q74 0 115.5 33t41.5 99z" />
    <glyph glyph-name="uni2029" unicode="&#x2029;" horiz-adv-x="2577" 
d="M100 1518v379h379v-138h-241v-241h-138zM2098 1759v138h379v-379h-138v241h-241zM100 -480v379h138v-241h241v-138h-379zM2098 -480v138h241v241h138v-379h-379zM1608 -480v138h339v-138h-339zM629 -480v138h339v-138h-339zM629 1759v138h339v-138h-339zM2477 49h-138
v339h138v-339zM2477 1028h-138v339h138v-339zM1119 -480v138h339v-138h-339zM238 49h-138v339h138v-339zM1119 1759v138h339v-138h-339zM1608 1759v138h339v-138h-339zM238 539h-138v339h138v-339zM238 1028h-138v339h138v-339zM2477 539h-138v339h138v-339zM1080 -75v717
h388v-102h-269v-202h250v-102h-250v-208h286v-103h-405zM944 116q0 -39 -13.5 -75.5t-44 -65t-79.5 -45.5t-119 -17q-23 0 -48 3.5t-48.5 9.5t-43 14t-31.5 16v130q18 -17 40.5 -30t47 -22t49 -14t47.5 -5q34 0 56.5 8t35.5 20.5t18 28.5t5 32q0 21 -8 38.5t-25 34.5t-44 34
t-65 37q-46 24 -76.5 48t-49 49.5t-26.5 52.5t-8 57q0 43 17.5 80t49.5 63.5t76.5 41.5t99.5 15q24 0 48 -2.5t45 -6.5t37.5 -9t25.5 -9v-125q-29 24 -71 37.5t-84 13.5q-56 0 -86.5 -25.5t-30.5 -64.5q0 -22 6.5 -39t21 -32t38.5 -30.5t59 -33.5q87 -46 132.5 -94.5
t45.5 -118.5zM2112 420q0 -49 -18 -92t-53 -75.5t-86 -51t-117 -18.5h-85v-258h-119v717h222q129 0 192.5 -60t63.5 -162zM1987 416q0 58 -37.5 92t-114.5 34h-82v-258h77q74 0 115.5 33t41.5 99zM1561 1306q0 -49 -18 -92t-53 -75.5t-86 -51t-117 -18.5h-85v-258h-119v717
h222q129 0 192.5 -60t63.5 -162zM1436 1302q0 58 -37.5 92t-114.5 34h-82v-258h77q74 0 115.5 33t41.5 99z" />
    <glyph glyph-name="uni202A" unicode="&#x202a;" horiz-adv-x="2577" 
d="M100 1518v379h379v-138h-241v-241h-138zM2098 1759v138h379v-379h-138v241h-241zM100 -480v379h138v-241h241v-138h-379zM2098 -480v138h241v241h138v-379h-379zM1608 -480v138h339v-138h-339zM629 -480v138h339v-138h-339zM629 1759v138h339v-138h-339zM2477 49h-138
v339h138v-339zM2477 1028h-138v339h138v-339zM1119 -480v138h339v-138h-339zM238 49h-138v339h138v-339zM1119 1759v138h339v-138h-339zM1608 1759v138h339v-138h-339zM238 539h-138v339h138v-339zM238 1028h-138v339h138v-339zM2477 539h-138v339h138v-339zM520 358v717
h119v-614h281v-103h-400zM1659 358v717h388v-102h-269v-202h250v-102h-250v-208h286v-103h-405zM1399 358l-87 207q-20 46 -45 65t-54 19h-55v-291h-119v717h232q59 0 103.5 -14t74 -39.5t44 -61t14.5 -78.5q0 -78 -42.5 -129.5t-114.5 -68.5v-2q25 -8 46 -35t35 -54
l109 -235h-141zM1382 870q0 48 -32 77t-97 29h-95v-227h93q30 0 54.5 9.5t41.5 26t26 38.5t9 47z" />
    <glyph glyph-name="uni202B" unicode="&#x202b;" horiz-adv-x="2577" 
d="M100 1518v379h379v-138h-241v-241h-138zM2098 1759v138h379v-379h-138v241h-241zM100 -480v379h138v-241h241v-138h-379zM2098 -480v138h241v241h138v-379h-379zM1608 -480v138h339v-138h-339zM629 -480v138h339v-138h-339zM629 1759v138h339v-138h-339zM2477 49h-138
v339h138v-339zM2477 1028h-138v339h138v-339zM1119 -480v138h339v-138h-339zM238 49h-138v339h138v-339zM1119 1759v138h339v-138h-339zM1608 1759v138h339v-138h-339zM238 539h-138v339h138v-339zM238 1028h-138v339h138v-339zM2477 539h-138v339h138v-339zM1136 358v717
h119v-614h281v-103h-400zM1659 358v717h388v-102h-269v-202h250v-102h-250v-208h286v-103h-405zM880 358l-87 207q-20 46 -45 65t-54 19h-55v-291h-119v717h232q59 0 103.5 -14t74 -39.5t44 -61t14.5 -78.5q0 -78 -42.5 -129.5t-114.5 -68.5v-2q25 -8 46 -35t35 -54
l109 -235h-141zM863 870q0 48 -32 77t-97 29h-95v-227h93q30 0 54.5 9.5t41.5 26t26 38.5t9 47z" />
    <glyph glyph-name="afii61573" unicode="&#x202c;" horiz-adv-x="2577" 
d="M100 1518v379h379v-138h-241v-241h-138zM2098 1759v138h379v-379h-138v241h-241zM100 -480v379h138v-241h241v-138h-379zM2098 -480v138h241v241h138v-379h-379zM1608 -480v138h339v-138h-339zM629 -480v138h339v-138h-339zM629 1759v138h339v-138h-339zM2477 49h-138
v339h138v-339zM2477 1028h-138v339h138v-339zM1119 -480v138h339v-138h-339zM238 49h-138v339h138v-339zM1119 1759v138h339v-138h-339zM1608 1759v138h339v-138h-339zM238 539h-138v339h138v-339zM238 1028h-138v339h138v-339zM2477 539h-138v339h138v-339zM927 853
q0 -49 -18 -92t-53 -75.5t-86 -51t-117 -18.5h-85v-258h-119v717h222q129 0 192.5 -60t63.5 -162zM802 849q0 58 -37.5 92t-114.5 34h-82v-258h77q74 0 115.5 33t41.5 99zM1645 726q0 -83 -27.5 -151t-78.5 -116t-123 -74.5t-161 -26.5h-216v717h222q193 0 288.5 -88.5
t95.5 -260.5zM1519 724q0 119 -67 184t-196 65h-98v-512h96q64 0 113.5 18.5t83.5 53t51 83t17 108.5zM1871 973v-212h249v-103h-249v-300h-119v717h388v-102h-269z" />
    <glyph glyph-name="afii61574" unicode="&#x202d;" horiz-adv-x="2577" 
d="M100 1518v379h379v-138h-241v-241h-138zM2098 1759v138h379v-379h-138v241h-241zM100 -480v379h138v-241h241v-138h-379zM2098 -480v138h241v241h138v-379h-379zM1608 -480v138h339v-138h-339zM629 -480v138h339v-138h-339zM629 1759v138h339v-138h-339zM2477 49h-138
v339h138v-339zM2477 1028h-138v339h138v-339zM1119 -480v138h339v-138h-339zM238 49h-138v339h138v-339zM1119 1759v138h339v-138h-339zM1608 1759v138h339v-138h-339zM238 539h-138v339h138v-339zM238 1028h-138v339h138v-339zM2477 539h-138v339h138v-339zM450 358v717
h119v-614h281v-103h-400zM1319 358l-87 207q-20 46 -45 65t-54 19h-55v-291h-119v717h232q59 0 103.5 -14t74 -39.5t44 -61t14.5 -78.5q0 -78 -42.5 -129.5t-114.5 -68.5v-2q25 -8 46 -35t35 -54l109 -235h-141zM1302 870q0 48 -32 77t-97 29h-95v-227h93q30 0 54.5 9.5
t41.5 26t26 38.5t9 47zM2195 725q0 -87 -25 -157t-70.5 -119.5t-109.5 -76t-143 -26.5q-77 0 -139.5 26.5t-107 74.5t-69 114.5t-24.5 146.5q0 82 23.5 152t68.5 120.5t110.5 79t149.5 28.5q75 0 136.5 -26t106 -73.5t69 -114.5t24.5 -149zM2069 714q0 66 -15.5 116.5
t-43.5 84.5t-67.5 51t-88.5 17q-51 0 -92 -19.5t-69.5 -55t-44 -84t-15.5 -106.5q0 -63 16.5 -112t45.5 -83.5t68.5 -52.5t85.5 -18q49 0 89.5 16.5t69.5 49.5t45 82t16 114z" />
    <glyph glyph-name="afii61575" unicode="&#x202e;" horiz-adv-x="2577" 
d="M100 1518v379h379v-138h-241v-241h-138zM2098 1759v138h379v-379h-138v241h-241zM100 -480v379h138v-241h241v-138h-379zM2098 -480v138h241v241h138v-379h-379zM1608 -480v138h339v-138h-339zM629 -480v138h339v-138h-339zM629 1759v138h339v-138h-339zM2477 49h-138
v339h138v-339zM2477 1028h-138v339h138v-339zM1119 -480v138h339v-138h-339zM238 49h-138v339h138v-339zM1119 1759v138h339v-138h-339zM1608 1759v138h339v-138h-339zM238 539h-138v339h138v-339zM238 1028h-138v339h138v-339zM2477 539h-138v339h138v-339zM1056 358v717
h119v-614h281v-103h-400zM811 358l-87 207q-20 46 -45 65t-54 19h-55v-291h-119v717h232q59 0 103.5 -14t74 -39.5t44 -61t14.5 -78.5q0 -78 -42.5 -129.5t-114.5 -68.5v-2q25 -8 46.5 -34.5t34.5 -54.5l109 -235h-141zM794 870q0 48 -32 77t-97 29h-95v-227h93
q30 0 54.5 9.5t41.5 26t26 38.5t9 47zM2165 725q0 -87 -25 -157t-70.5 -119.5t-109.5 -76t-143 -26.5q-77 0 -139.5 26.5t-107 74.5t-69 114.5t-24.5 146.5q0 82 23.5 152t68.5 120.5t110.5 79t149.5 28.5q75 0 136.5 -26t106 -73.5t69 -114.5t24.5 -149zM2039 714
q0 66 -15.5 116.5t-43.5 84.5t-67.5 51t-88.5 17q-51 0 -92 -19.5t-69.5 -55t-44 -84t-15.5 -106.5q0 -63 16.5 -112t45.5 -83.5t68.5 -52.5t85.5 -18q49 0 89.5 16.5t69.5 49.5t45 82t16 114z" />
    <glyph glyph-name="uni202F" unicode="&#x202f;" horiz-adv-x="561" 
 />
    <glyph glyph-name="perthousand" unicode="&#x2030;" horiz-adv-x="2478" 
d="M404 715q-148 0 -236 97.5t-88 260.5q0 178 93 280.5t251 102.5q153 0 237.5 -95t84.5 -267t-94.5 -275.5t-247.5 -103.5zM418 1346q-95 0 -150 -70.5t-55 -193.5q0 -121 54 -188.5t147 -67.5q94 0 147 70t53 194q0 121 -52.5 188.5t-143.5 67.5zM1366 1434l-922 -1444
h-143l921 1444h144zM2056 -22q-148 0 -236 98t-88 260q0 177 94.5 281t249.5 104q153 0 237.5 -95.5t84.5 -269.5q0 -171 -94 -274.5t-248 -103.5zM2070 608q-96 0 -150 -70.5t-54 -193.5q0 -120 53.5 -187t146.5 -67q95 0 148 70.5t53 193.5q0 121 -53 187.5t-144 66.5z
M1258 -22q-148 0 -236 98t-88 260q0 178 94 281.5t250 103.5q152 0 237 -96t85 -269q0 -171 -94.5 -274.5t-247.5 -103.5zM1272 608q-96 0 -150.5 -70t-54.5 -194q0 -119 54 -186.5t147 -67.5q94 0 147 70.5t53 193.5q0 122 -52.5 188t-143.5 66z" />
    <glyph glyph-name="uni2031" unicode="&#x2031;" horiz-adv-x="3276" 
d="M404 715q-148 0 -236 97.5t-88 260.5q0 178 93 280.5t251 102.5q153 0 237.5 -95t84.5 -267t-94.5 -275.5t-247.5 -103.5zM418 1346q-95 0 -150 -70.5t-55 -193.5q0 -121 54 -188.5t147 -67.5q94 0 147 70t53 194q0 121 -52.5 188.5t-143.5 67.5zM1366 1434l-922 -1444
h-143l921 1444h144zM2056 -22q-148 0 -236 98t-88 260q0 177 94.5 281t249.5 104q153 0 237.5 -95.5t84.5 -269.5q0 -171 -94 -274.5t-248 -103.5zM2070 608q-96 0 -150 -70.5t-54 -193.5q0 -120 53.5 -187t146.5 -67q95 0 148 70.5t53 193.5q0 121 -53 187.5t-144 66.5z
M1258 -22q-148 0 -236 98t-88 260q0 178 94 281.5t250 103.5q152 0 237 -96t85 -269q0 -171 -94.5 -274.5t-247.5 -103.5zM1272 608q-96 0 -150.5 -70t-54.5 -194q0 -119 54 -186.5t147 -67.5q94 0 147 70.5t53 193.5q0 122 -52.5 188t-143.5 66zM2854 -22q-148 0 -236 98
t-88 260q0 177 94.5 281t249.5 104q153 0 237.5 -95.5t84.5 -269.5q0 -171 -94 -274.5t-248 -103.5zM2868 608q-96 0 -150 -70.5t-54 -193.5q0 -120 53.5 -187t146.5 -67q95 0 148 70.5t53 193.5q0 121 -53 187.5t-144 66.5z" />
    <glyph glyph-name="minute" unicode="&#x2032;" horiz-adv-x="469" 
d="M350 1434l-104 -447h-116l86 447h134z" />
    <glyph glyph-name="second" unicode="&#x2033;" horiz-adv-x="772" 
d="M644 1434l-106 -447h-116l86 447h136zM361 1434l-105 -447h-115l85 447h135z" />
    <glyph glyph-name="uni2034" unicode="&#x2034;" horiz-adv-x="1054" 
d="M361 1434l-105 -447h-115l85 447h135zM926 1434l-106 -447h-116l86 447h136zM643 1434l-105 -447h-115l85 447h135z" />
    <glyph glyph-name="uni2035" unicode="&#x2035;" horiz-adv-x="469" 
d="M253 1434l86 -447h-116l-104 447h134z" />
    <glyph glyph-name="uni2036" unicode="&#x2036;" horiz-adv-x="772" 
d="M264 1434l86 -447h-116l-106 447h136zM546 1434l85 -447h-115l-105 447h135z" />
    <glyph glyph-name="uni2037" unicode="&#x2037;" horiz-adv-x="1054" 
d="M828 1434l85 -447h-115l-105 447h135zM264 1434l86 -447h-116l-106 447h136zM546 1434l85 -447h-115l-105 447h135z" />
    <glyph glyph-name="uni2038" unicode="&#x2038;" horiz-adv-x="648" 
d="M486 0l-164 229l-164 -229h-115l216 330h132l214 -330h-119z" />
    <glyph glyph-name="guilsinglleft" unicode="&#x2039;" horiz-adv-x="647" 
d="M557 200h-166l-299 336l299 344h168l-305 -344z" />
    <glyph glyph-name="guilsinglright" unicode="&#x203a;" horiz-adv-x="647" 
d="M559 538l-301 -338h-166l304 338l-304 342h166z" />
    <glyph glyph-name="uni203B" unicode="&#x203b;" horiz-adv-x="2048" 
d="M1653 1156l-534 -533l536 -535l-101 -88l-530 528l-530 -528l-96 93l531 530l-534 532l96 94l533 -531l533 532zM507 514q-23 0 -42.5 8.5t-34 23.5t-23 35t-8.5 43t8.5 43.5t23 36t34 24.5t42.5 9q22 0 42 -9t35 -25t24 -36.5t9 -42.5q0 -23 -8.5 -43t-23.5 -35
t-35 -23.5t-43 -8.5zM1539 514q-23 0 -42.5 8.5t-34 23.5t-23 35t-8.5 43t8.5 43.5t23 36t34 24.5t42.5 9q22 0 42 -9t35 -25t24 -36.5t9 -42.5q0 -23 -8.5 -43t-23.5 -35t-35 -23.5t-43 -8.5zM1135 108q0 -23 -8.5 -42.5t-23.5 -34t-35 -23t-43 -8.5t-43.5 8.5t-36 23
t-24.5 34t-9 42.5q0 22 9 42t25 35t36 24t43 9t43 -8.5t35 -23.5t23.5 -35t8.5 -43zM1135 1140q0 -23 -8.5 -42.5t-23.5 -34t-35 -23t-43 -8.5t-43.5 8.5t-36 23t-24.5 34t-9 42.5q0 22 9 42t25 35t36 24t43 9t43 -8.5t35 -23.5t23.5 -35t8.5 -43z" />
    <glyph glyph-name="exclamdbl" unicode="&#x203c;" horiz-adv-x="983" 
d="M375 1434l-19 -1030h-135l-18 1030h172zM291 -18q-46 0 -78.5 32t-32.5 78t32.5 78.5t78.5 32.5q45 0 78 -32.5t33 -78.5t-33 -78t-78 -32zM776 1434l-19 -1030h-135l-18 1030h172zM692 -18q-46 0 -78.5 32t-32.5 78t32.5 78.5t78.5 32.5q45 0 78 -32.5t33 -78.5t-33 -78
t-78 -32z" />
    <glyph glyph-name="uni203d" unicode="&#x203d;" horiz-adv-x="918" 
d="M103 1186v176q38 24 77 42t81 30t88 18t99 6q76 0 144.5 -20t120.5 -59.5t82.5 -98.5t30.5 -137q0 -74 -25.5 -131t-64 -104.5t-83.5 -88.5t-83.5 -83t-65 -88.5t-27.5 -104.5l-3 -139h-135l-16 900q-60 -17 -116 -48.5t-104 -69.5zM665 1133q0 72 -46.5 119t-127.5 61
l-9 -496q40 42 74 77.5t58 71.5t37.5 76t13.5 91zM425 -18q-43 0 -78 32q-33 31 -33 78q0 46 33 78q33 33 78 33t78 -33q33 -32 33 -78q0 -47 -33 -78q-35 -32 -78 -32z" />
    <glyph glyph-name="radicalex" unicode="&#x203e;" horiz-adv-x="850" 
d="M850 1396h-850v120h850v-120z" />
    <glyph glyph-name="uni203F" unicode="&#x203f;" horiz-adv-x="1630" 
d="M815 -295q445 0 633 258h162q-239 -380 -795 -380t-795 380h162q187 -258 633 -258z" />
    <glyph glyph-name="uni2040" unicode="&#x2040;" horiz-adv-x="1630" 
d="M1448 1471q-188 258 -633 258q-446 0 -633 -258h-162q239 380 795 380t795 -380h-162z" />
    <glyph glyph-name="uni2041" unicode="&#x2041;" horiz-adv-x="1310" 
d="M969 1184l105 -71l-385 -579l410 -472l-100 -86l-386 444l-291 -444l-111 64z" />
    <glyph glyph-name="uni2042" unicode="&#x2042;" horiz-adv-x="1834" 
d="M1274 1186l-274 -56l190 -243l-110 -76l-156 265l-158 -265l-110 76l190 243l-276 56l45 125l262 -99l-23 304h138l-23 -304l263 99zM1744 373l-274 -56l190 -243l-110 -76l-156 265l-158 -265l-110 76l190 243l-276 56l45 125l262 -99l-23 304h138l-23 -304l263 99z
M795 373l-274 -56l190 -243l-110 -76l-156 265l-158 -265l-110 76l190 243l-276 56l45 125l262 -99l-23 304h138l-23 -304l263 99z" />
    <glyph glyph-name="uni2043" unicode="&#x2043;" horiz-adv-x="819" 
d="M690 446h-546v249h546v-249z" />
    <glyph glyph-name="uni2044" unicode="&#x2044;" horiz-adv-x="354" 
d="M690 1434l-858 -1434h-144l859 1434h143z" />
    <glyph glyph-name="uni2045" unicode="&#x2045;" horiz-adv-x="618" 
d="M568 -326h-368v1760h368v-119h-222v-701h222v-119h-222v-702h222v-119z" />
    <glyph glyph-name="uni2046" unicode="&#x2046;" horiz-adv-x="618" 
d="M274 495h-222v119h222v701h-221v119h367v-1760h-367v119h221v702z" />
    <glyph glyph-name="uni2047" unicode="&#x2047;" horiz-adv-x="1705" 
d="M335 398q-9 26 -16 67.5t-7 82.5q0 64 25.5 115.5t63.5 96.5t83 86.5t83 84t63.5 89t25.5 102.5q0 48 -18.5 85t-50.5 62t-74 37.5t-89 12.5q-169 0 -293 -133v176q153 96 317 96q76 0 143 -20t117.5 -59.5t79.5 -98.5t29 -137q0 -74 -26 -132t-65.5 -106.5t-85.5 -90.5
t-85.5 -83.5t-65.5 -86.5t-26 -99q0 -46 11 -83.5t22 -63.5h-161zM425 -18q-44 0 -78 32q-33 32 -33 78q0 47 33 78q33 33 78 33t78 -33q33 -31 33 -78q0 -46 -33 -78q-34 -32 -78 -32zM1122 398q-9 26 -16 67.5t-7 82.5q0 64 25.5 115.5t63.5 96.5t83 86.5t83 84t63.5 89
t25.5 102.5q0 48 -18.5 85t-50.5 62t-74 37.5t-89 12.5q-169 0 -293 -133v176q153 96 317 96q76 0 143 -20t117.5 -59.5t79.5 -98.5t29 -137q0 -74 -26 -132t-65.5 -106.5t-85.5 -90.5t-85.5 -83.5t-65.5 -86.5t-26 -99q0 -46 11 -83.5t22 -63.5h-161zM1212 -18
q-44 0 -78 32q-33 32 -33 78q0 47 33 78q33 33 78 33t78 -33q33 -31 33 -78q0 -46 -33 -78q-34 -32 -78 -32z" />
    <glyph glyph-name="uni2048" unicode="&#x2048;" horiz-adv-x="1377" 
d="M335 398q-9 26 -16 67.5t-7 82.5q0 64 25.5 115.5t63.5 96.5t83 86.5t83 84t63.5 89t25.5 102.5q0 48 -18.5 85t-50.5 62t-74 37.5t-89 12.5q-169 0 -293 -133v176q153 96 317 96q76 0 143 -20t117.5 -59.5t79.5 -98.5t29 -137q0 -74 -26 -132t-65.5 -106.5t-85.5 -90.5
t-85.5 -83.5t-65.5 -86.5t-26 -99q0 -46 11 -83.5t22 -63.5h-161zM425 -18q-44 0 -78 32q-33 32 -33 78q0 47 33 78q33 33 78 33t78 -33q33 -31 33 -78q0 -46 -33 -78q-34 -32 -78 -32zM1170 1434l-19 -1030h-135l-18 1030h172zM1086 -18q-46 0 -78.5 32t-32.5 78t32.5 78.5
t78.5 32.5q45 0 78 -32.5t33 -78.5t-33 -78t-78 -32z" />
    <glyph glyph-name="uni2049" unicode="&#x2049;" horiz-adv-x="1339" 
d="M375 1434l-19 -1030h-135l-18 1030h172zM291 -18q-46 0 -78.5 32t-32.5 78t32.5 78.5t78.5 32.5q45 0 78 -32.5t33 -78.5t-33 -78t-78 -32zM756 398q-9 26 -16 67.5t-7 82.5q0 64 25.5 115.5t63.5 96.5t83 86.5t83 84t63.5 89t25.5 102.5q0 48 -18.5 85t-50.5 62
t-74 37.5t-89 12.5q-169 0 -293 -133v176q153 96 317 96q76 0 143 -20t117.5 -59.5t79.5 -98.5t29 -137q0 -74 -26 -132t-65.5 -106.5t-85.5 -90.5t-85.5 -83.5t-65.5 -86.5t-26 -99q0 -46 11 -83.5t22 -63.5h-161zM846 -18q-44 0 -78 32q-33 32 -33 78q0 47 33 78
q33 33 78 33t78 -33q33 -31 33 -78q0 -46 -33 -78q-34 -32 -78 -32z" />
    <glyph glyph-name="uni204A" unicode="&#x204a;" horiz-adv-x="1029" 
d="M959 1015l-237 -1015h-157l242 975q-54 -12 -112.5 -22t-118 -16.5t-117 -10.5t-109.5 -4q-48 0 -86 2t-70.5 5.5t-61 9.5t-55.5 14v203q56 -21 126.5 -34.5t157.5 -13.5q48 0 103 3t114 8t120 12t120 16h141v-132z" />
    <glyph glyph-name="uni204b" unicode="&#x204b;" horiz-adv-x="938" 
d="M104 1434h494q107 0 181.5 -73.5t74.5 -190.5q0 -115 -71 -191t-179 -76v-903h-108v1331h-158v-1331h-106v1331h-128v103z" />
    <glyph glyph-name="uni204C" unicode="&#x204c;" horiz-adv-x="851" 
d="M458 368q-59 0 -112 20.5t-93.5 58t-64.5 91t-24 120.5q0 66 24 120.5t64.5 93t93.5 59.5t112 21h229v-584h-229zM576 849h-118v-378h118v378z" />
    <glyph glyph-name="uni204D" unicode="&#x204d;" horiz-adv-x="851" 
d="M164 368v584h229q58 0 111.5 -21t94 -59.5t64.5 -93t24 -120.5q0 -67 -24 -120.5t-64.5 -91t-93.5 -58t-112 -20.5h-229zM275 471h118v378h-118v-378z" />
    <glyph glyph-name="uni204E" unicode="&#x204e;" horiz-adv-x="854" 
d="M780 681l-274 -56l190 -243l-110 -76l-156 265l-158 -265l-110 76l190 243l-276 56l45 125l262 -99l-23 304h138l-23 -304l263 99z" />
    <glyph glyph-name="uni204f" unicode="&#x204f;" horiz-adv-x="436" 
d="M218 824q-46 0 -79 33t-33 79t33 78t79 32q47 0 79.5 -32t32.5 -78t-32.5 -79t-79.5 -33zM288 228l117 -492h-117l-160 492h160z" />
    <glyph glyph-name="uni2050" unicode="&#x2050;" horiz-adv-x="1630" 
d="M815 -295q445 0 633 258h162q-239 -380 -795 -380t-795 380h162q187 -258 633 -258zM1448 1471q-188 258 -633 258q-446 0 -633 -258h-162q239 380 795 380t795 -380h-162z" />
    <glyph glyph-name="uni2051" unicode="&#x2051;" horiz-adv-x="854" 
d="M780 1186l-274 -56l190 -243l-110 -76l-156 265l-158 -265l-110 76l190 243l-276 56l45 125l262 -99l-23 304h138l-23 -304l263 99zM780 373l-274 -56l190 -243l-110 -76l-156 265l-158 -265l-110 76l190 243l-276 56l45 125l262 -99l-23 304h138l-23 -304l263 99z" />
    <glyph glyph-name="uni2052" unicode="&#x2052;" horiz-adv-x="1243" 
d="M1103 1434l-820 -1444h-143l819 1444h144zM316 1186q-55 0 -94 40t-39 95q0 56 39 95.5t94 39.5q56 0 95.5 -39.5t39.5 -95.5q0 -55 -39.5 -95t-95.5 -40zM933 -22q-55 0 -94 40t-39 95q0 56 39 95.5t94 39.5q56 0 95.5 -39.5t39.5 -95.5q0 -55 -39.5 -95t-95.5 -40z" />
    <glyph glyph-name="uni2053" unicode="&#x2053;" horiz-adv-x="1643" 
d="M1434 750q-9 -148 -93 -229t-245 -81q-71 0 -158 27t-187 82q-124 67 -220 67q-179 0 -187 -176h-135q3 72 27 129t68 97.5t107 62t144 21.5q135 0 301 -88q85 -45 149.5 -67.5t117.5 -22.5q39 0 71 13t54.5 36t35.5 56t15 73h135z" />
    <glyph glyph-name="uni2054" unicode="&#x2054;" horiz-adv-x="1630" 
d="M815 -159q-446 0 -633 -258h-162q239 380 795 380t795 -380h-162q-188 258 -633 258z" />
    <glyph glyph-name="uni2055" unicode="&#x2055;" horiz-adv-x="1393" 
d="M633 159l33 479l-319 -354l-88 86l364 320l-503 -30v122l511 -35l-378 338l79 84l334 -379l-33 487h128l-34 -477l323 358l85 -90l-364 -321l502 35v-122l-506 34l379 -337l-79 -83l-340 370l34 -485h-128z" />
    <glyph glyph-name="uni2056" unicode="&#x2056;" horiz-adv-x="949" 
d="M726 1036q-46 0 -78.5 33t-32.5 79q0 47 32.5 80t78.5 33q47 0 80 -33t33 -80q0 -46 -33 -79t-80 -33zM726 215q-46 0 -78.5 33t-32.5 79q0 47 32.5 80t78.5 33q47 0 80 -33t33 -80q0 -46 -33 -79t-80 -33zM221 626q-46 0 -78.5 33t-32.5 79q0 47 32.5 80t78.5 33
q47 0 80 -33t33 -80q0 -46 -33 -79t-80 -33z" />
    <glyph glyph-name="uni2057" unicode="&#x2057;" horiz-adv-x="1336" 
d="M361 1434l-105 -447h-115l85 447h135zM643 1434l-105 -447h-115l85 447h135zM1208 1434l-106 -447h-116l86 447h136zM925 1434l-105 -447h-115l85 447h135z" />
    <glyph glyph-name="uni2058" unicode="&#x2058;" horiz-adv-x="1313" 
d="M657 1036q-46 0 -78.5 33t-32.5 79q0 47 32.5 80t78.5 33q47 0 80 -33t33 -80q0 -46 -33 -79t-80 -33zM657 215q-46 0 -78.5 33t-32.5 79q0 47 32.5 80t78.5 33q47 0 80 -33t33 -80q0 -46 -33 -79t-80 -33zM231 626q-46 0 -78.5 33t-32.5 79q0 47 32.5 80t78.5 33
q47 0 80 -33t33 -80q0 -46 -33 -79t-80 -33zM1080 626q-46 0 -78.5 33t-32.5 79q0 47 32.5 80t78.5 33q47 0 80 -33t33 -80q0 -46 -33 -79t-80 -33z" />
    <glyph glyph-name="uni2059" unicode="&#x2059;" horiz-adv-x="1065" 
d="M356 1029q0 -23 -8.5 -43.5t-23.5 -35.5t-35.5 -24t-44.5 -9q-23 0 -43.5 9t-35.5 24t-24 35.5t-9 43.5q0 24 9 44.5t24 35.5t35.5 23.5t43.5 8.5q22 0 42.5 -8.5t36 -23.5t24.5 -35.5t9 -44.5zM937 448q0 -23 -9 -43t-24.5 -35.5t-36 -24.5t-42.5 -9q-23 0 -43.5 9
t-36 25t-24.5 36t-9 43t9 43.5t24.5 35.5t35.5 24t43 9t43.5 -9t36 -24.5t24.5 -36t9 -43.5zM345 438q0 -24 -9 -44.5t-24.5 -35.5t-35.5 -24t-42 -9t-42.5 9t-36.5 24t-25.5 35.5t-9.5 44.5t9.5 44.5t25 35.5t35.5 23.5t42 8.5t42 -8t36 -23t25.5 -35.5t9.5 -45.5z
M945 1038q0 -23 -8.5 -43.5t-23.5 -35.5t-35.5 -24t-44.5 -9q-23 0 -43.5 9t-35.5 24t-24 35.5t-9 43.5q0 24 9 44.5t24.5 36t35.5 24t43 8.5q22 0 42.5 -8.5t36 -24t24.5 -36t9 -44.5zM646 739q0 -23 -8.5 -43.5t-23.5 -35.5t-35.5 -24t-44.5 -9q-23 0 -43 9t-36 24
t-25 35.5t-9 43.5q0 24 9 44.5t24.5 35.5t36 23.5t43.5 8.5q22 0 42.5 -8.5t36 -23.5t24.5 -35.5t9 -44.5z" />
    <glyph glyph-name="uni205A" unicode="&#x205a;" horiz-adv-x="464" 
d="M231 1260q-46 0 -78.5 33t-32.5 79q0 47 32.5 80t78.5 33q47 0 80 -33t33 -80q0 -46 -33 -79t-80 -33zM231 -9q-46 0 -78.5 33t-32.5 79q0 47 32.5 80t78.5 33q47 0 80 -33t33 -80q0 -46 -33 -79t-80 -33z" />
    <glyph glyph-name="uni205B" unicode="&#x205b;" horiz-adv-x="1313" 
d="M657 1260q-46 0 -78.5 33t-32.5 79q0 47 32.5 80t78.5 33q47 0 80 -33t33 -80q0 -46 -33 -79t-80 -33zM657 -10q-46 0 -78.5 33t-32.5 79q0 47 32.5 80t78.5 33q47 0 80 -33t33 -80q0 -46 -33 -79t-80 -33zM231 626q-46 0 -78.5 33t-32.5 79q0 47 32.5 80t78.5 33
q47 0 80 -33t33 -80q0 -46 -33 -79t-80 -33zM1080 626q-46 0 -78.5 33t-32.5 79q0 47 32.5 80t78.5 33q47 0 80 -33t33 -80q0 -46 -33 -79t-80 -33z" />
    <glyph glyph-name="uni205C" unicode="&#x205c;" horiz-adv-x="2048" 
d="M1093 1445v-754h757l-9 -135h-750v-751h-132v749h-753v136h753v753zM550 989q0 23 8.5 43t23.5 35t35 23.5t43 8.5t43 -8.5t35 -23.5t23.5 -35t8.5 -43t-8.5 -43t-23.5 -35t-35 -23.5t-43 -8.5t-43 8.5t-35 23.5t-23.5 35t-8.5 43zM1278 987q0 23 8.5 43t23.5 35t35 23.5
t43 8.5t43 -8.5t35 -23.5t23.5 -35t8.5 -43t-8.5 -43t-23.5 -35t-35 -23.5t-43 -8.5t-43 8.5t-35 23.5t-23.5 35t-8.5 43zM1278 259q0 23 8.5 43t23.5 35t35 23.5t43 8.5t43 -8.5t35 -23.5t23.5 -35t8.5 -43t-8.5 -43t-23.5 -35t-35 -23.5t-43 -8.5t-43 8.5t-35 23.5
t-23.5 35t-8.5 43zM550 259q0 23 8.5 43t23.5 35t35 23.5t43 8.5t43 -8.5t35 -23.5t23.5 -35t8.5 -43t-8.5 -43t-23.5 -35t-35 -23.5t-43 -8.5t-43 8.5t-35 23.5t-23.5 35t-8.5 43z" />
    <glyph glyph-name="uni205D" unicode="&#x205d;" horiz-adv-x="464" 
d="M231 1260q-46 0 -78.5 33t-32.5 79q0 47 32.5 80t78.5 33q47 0 80 -33t33 -80q0 -46 -33 -79t-80 -33zM231 -9q-46 0 -78.5 33t-32.5 79q0 47 32.5 80t78.5 33q47 0 80 -33t33 -80q0 -46 -33 -79t-80 -33zM231 626q-46 0 -78.5 33t-32.5 79q0 47 32.5 80t78.5 33
q47 0 80 -33t33 -80q0 -46 -33 -79t-80 -33z" />
    <glyph glyph-name="uni205E" unicode="&#x205e;" horiz-adv-x="464" 
d="M231 1260q-46 0 -78.5 33t-32.5 79q0 47 32.5 80t78.5 33q47 0 80 -33t33 -80q0 -46 -33 -79t-80 -33zM231 -9q-46 0 -78.5 33t-32.5 79q0 47 32.5 80t78.5 33q47 0 80 -33t33 -80q0 -46 -33 -79t-80 -33zM231 414q-46 0 -78.5 33t-32.5 79q0 47 32.5 80t78.5 33
q47 0 80 -33t33 -80q0 -46 -33 -79t-80 -33zM231 837q-46 0 -78.5 33t-32.5 79q0 47 32.5 80t78.5 33q47 0 80 -33t33 -80q0 -46 -33 -79t-80 -33z" />
    <glyph glyph-name="uni205F" unicode="&#x205f;" horiz-adv-x="450" 
 />
    <glyph glyph-name="uni2060" unicode="&#x2060;" horiz-adv-x="0" 
 />
    <glyph glyph-name="uni2061" unicode="&#x2061;" horiz-adv-x="2577" 
d="M100 1518v379h379v-138h-241v-241h-138zM2098 1759v138h379v-379h-138v241h-241zM100 -480v379h138v-241h241v-138h-379zM2098 -480v138h241v241h138v-379h-379zM1608 -480v138h339v-138h-339zM629 -480v138h339v-138h-339zM629 1759v138h339v-138h-339zM2477 49h-138
v339h138v-339zM2477 1028h-138v339h138v-339zM1119 -480v138h339v-138h-339zM238 49h-138v339h138v-339zM1119 1759v138h339v-138h-339zM1608 1759v138h339v-138h-339zM238 539h-138v339h138v-339zM238 1028h-138v339h138v-339zM2477 539h-138v339h138v-339zM1224 1455
q-146 0 -170 -160l-31 -208h166v-138h-187l-90 -648q-58 -418 -348 -418q-33 0 -90 16v143q36 -21 86 -21q76 0 122.5 72.5t67.5 219.5l91 636h-103v138h124l28 219q8 66 35 119t69.5 91t99 58.5t122.5 20.5q65 0 116 -19v-149q-47 28 -108 28zM1277 508q0 135 39.5 241.5
t119.5 200.5h108q-83 -104 -119 -210t-36 -232q0 -118 37 -228t118 -210h-108q-85 95 -122 207t-37 231zM1911 508q0 63 -9 120.5t-27.5 111.5t-48 106t-70.5 104h108q80 -94 119.5 -200.5t39.5 -241.5q0 -119 -37 -231t-122 -207h-108q81 100 118 210t37 228z" />
    <glyph glyph-name="uni2062" unicode="&#x2062;" horiz-adv-x="2577" 
d="M100 1518v379h379v-138h-241v-241h-138zM2098 1759v138h379v-379h-138v241h-241zM100 -480v379h138v-241h241v-138h-379zM2098 -480v138h241v241h138v-379h-379zM1608 -480v138h339v-138h-339zM629 -480v138h339v-138h-339zM629 1759v138h339v-138h-339zM2477 49h-138
v339h138v-339zM2477 1028h-138v339h138v-339zM1119 -480v138h339v-138h-339zM238 49h-138v339h138v-339zM1119 1759v138h339v-138h-339zM1608 1759v138h339v-138h-339zM238 539h-138v339h138v-339zM238 1028h-138v339h138v-339zM2477 539h-138v339h138v-339zM1629 256
l-340 340l-342 -340l-121 121l342 338l-342 342l119 121l344 -340l342 340l117 -123l-340 -340l342 -338z" />
    <glyph glyph-name="uni2063" unicode="&#x2063;" horiz-adv-x="2577" 
d="M100 1518v379h379v-138h-241v-241h-138zM2098 1759v138h379v-379h-138v241h-241zM100 -480v379h138v-241h241v-138h-379zM2098 -480v138h241v241h138v-379h-379zM1608 -480v138h339v-138h-339zM629 -480v138h339v-138h-339zM629 1759v138h339v-138h-339zM2477 49h-138
v339h138v-339zM2477 1028h-138v339h138v-339zM1119 -480v138h339v-138h-339zM238 49h-138v339h138v-339zM1119 1759v138h339v-138h-339zM1608 1759v138h339v-138h-339zM238 539h-138v339h138v-339zM238 1028h-138v339h138v-339zM2477 539h-138v339h138v-339zM1271 95h-168
l102 502h217z" />
    <glyph glyph-name="uni206a" unicode="&#x206a;" horiz-adv-x="2577" 
d="M100 1518v379h379v-138h-241v-241h-138zM2098 1759v138h379v-379h-138v241h-241zM100 -480v379h138v-241h241v-138h-379zM2098 -480v138h241v241h138v-379h-379zM1608 -480v138h339v-138h-339zM629 -480v138h339v-138h-339zM629 1759v138h339v-138h-339zM2477 49h-138
v339h138v-339zM2477 1028h-138v339h138v-339zM1119 -480v138h339v-138h-339zM238 49h-138v339h138v-339zM1119 1759v138h339v-138h-339zM1608 1759v138h339v-138h-339zM238 539h-138v339h138v-339zM238 1028h-138v339h138v-339zM2477 539h-138v339h138v-339zM1186 116
q0 -39 -13.5 -75.5t-44 -65t-79.5 -45.5t-119 -17q-23 0 -48 3.5t-48.5 9.5t-43 14t-31.5 16v130q18 -17 40.5 -30t47 -22t49 -14t47.5 -5q34 0 56.5 8t35.5 20.5t18 28.5t5 32q0 21 -8 38.5t-25 34.5t-44 34t-65 37q-46 24 -76.5 48t-49 49.5t-26.5 52.5t-8 57
q0 43 17.5 80t49.5 63.5t76.5 41.5t99.5 15q24 0 48 -2.5t45 -6.5t37.5 -9t25.5 -9v-125q-29 24 -71 37.5t-84 13.5q-56 0 -86.5 -25.5t-30.5 -64.5q0 -22 6.5 -39t21 -32t38.5 -30.5t59 -33.5q87 -46 132.5 -94.5t45.5 -118.5zM1420 1528v-102h-70v-513h70v-102h-259v102
h70v513h-70v102h259zM1768 116q0 -39 -13.5 -75.5t-44 -65t-79.5 -45.5t-119 -17q-23 0 -48 3.5t-48.5 9.5t-43 14t-31.5 16v130q18 -17 40.5 -30t47 -22t49 -14t47.5 -5q34 0 56.5 8t35.5 20.5t18 28.5t5 32q0 21 -8 38.5t-25 34.5t-44 34t-65 37q-46 24 -76.5 48t-49 49.5
t-26.5 52.5t-8 57q0 43 17.5 80t49.5 63.5t76.5 41.5t99.5 15q24 0 48 -2.5t45 -6.5t37.5 -9t25.5 -9v-125q-29 24 -71 37.5t-84 13.5q-56 0 -86.5 -25.5t-30.5 -64.5q0 -22 6.5 -39t21 -32t38.5 -30.5t59 -33.5q87 -46 132.5 -94.5t45.5 -118.5z" />
    <glyph glyph-name="uni206b" unicode="&#x206b;" horiz-adv-x="2577" 
d="M100 1518v379h379v-138h-241v-241h-138zM2098 1759v138h379v-379h-138v241h-241zM100 -480v379h138v-241h241v-138h-379zM2098 -480v138h241v241h138v-379h-379zM1608 -480v138h339v-138h-339zM629 -480v138h339v-138h-339zM629 1759v138h339v-138h-339zM2477 49h-138
v339h138v-339zM2477 1028h-138v339h138v-339zM1119 -480v138h339v-138h-339zM238 49h-138v339h138v-339zM1119 1759v138h339v-138h-339zM1608 1759v138h339v-138h-339zM238 539h-138v339h138v-339zM238 1028h-138v339h138v-339zM2477 539h-138v339h138v-339zM1186 116
q0 -39 -13.5 -75.5t-44 -65t-79.5 -45.5t-119 -17q-23 0 -48 3.5t-48.5 9.5t-43 14t-31.5 16v130q18 -17 40.5 -30t47 -22t49 -14t47.5 -5q34 0 56.5 8t35.5 20.5t18 28.5t5 32q0 21 -8 38.5t-25 34.5t-44 34t-65 37q-46 24 -76.5 48t-49 49.5t-26.5 52.5t-8 57
q0 43 17.5 80t49.5 63.5t76.5 41.5t99.5 15q24 0 48 -2.5t45 -6.5t37.5 -9t25.5 -9v-125q-29 24 -71 37.5t-84 13.5q-56 0 -86.5 -25.5t-30.5 -64.5q0 -22 6.5 -39t21 -32t38.5 -30.5t59 -33.5q87 -46 132.5 -94.5t45.5 -118.5zM1768 116q0 -39 -13.5 -75.5t-44 -65
t-79.5 -45.5t-119 -17q-23 0 -48 3.5t-48.5 9.5t-43 14t-31.5 16v130q18 -17 40.5 -30t47 -22t49 -14t47.5 -5q34 0 56.5 8t35.5 20.5t18 28.5t5 32q0 21 -8 38.5t-25 34.5t-44 34t-65 37q-46 24 -76.5 48t-49 49.5t-26.5 52.5t-8 57q0 43 17.5 80t49.5 63.5t76.5 41.5
t99.5 15q24 0 48 -2.5t45 -6.5t37.5 -9t25.5 -9v-125q-29 24 -71 37.5t-84 13.5q-56 0 -86.5 -25.5t-30.5 -64.5q0 -22 6.5 -39t21 -32t38.5 -30.5t59 -33.5q87 -46 132.5 -94.5t45.5 -118.5zM1500 810l-65 181h-287l-63 -181h-130l272 717h132l272 -717h-131zM1302 1368
q-4 11 -6.5 27.5t-3.5 24.5h-3q-1 -9 -3.5 -24.5t-6.5 -27.5l-98 -276h220z" />
    <glyph glyph-name="uni206c" unicode="&#x206c;" horiz-adv-x="2577" 
d="M100 1518v379h379v-138h-241v-241h-138zM2098 1759v138h379v-379h-138v241h-241zM100 -480v379h138v-241h241v-138h-379zM2098 -480v138h241v241h138v-379h-379zM1608 -480v138h339v-138h-339zM629 -480v138h339v-138h-339zM629 1759v138h339v-138h-339zM2477 49h-138
v339h138v-339zM2477 1028h-138v339h138v-339zM1119 -480v138h339v-138h-339zM238 49h-138v339h138v-339zM1119 1759v138h339v-138h-339zM1608 1759v138h339v-138h-339zM238 539h-138v339h138v-339zM238 1028h-138v339h138v-339zM2477 539h-138v339h138v-339zM1420 1528v-102
h-70v-513h70v-102h-259v102h70v513h-70v102h259zM2064 116q0 -39 -13.5 -75.5t-44 -65t-79.5 -45.5t-119 -17q-23 0 -48 3.5t-48.5 9.5t-43 14t-31.5 16v130q18 -17 40.5 -30t47 -22t49 -14t47.5 -5q34 0 56.5 8t35.5 20.5t18 28.5t5 32q0 21 -8 38.5t-25 34.5t-44 34
t-65 37q-46 24 -76.5 48t-49 49.5t-26.5 52.5t-8 57q0 43 17.5 80t49.5 63.5t76.5 41.5t99.5 15q24 0 48 -2.5t45 -6.5t37.5 -9t25.5 -9v-125q-29 24 -71 37.5t-84 13.5q-56 0 -86.5 -25.5t-30.5 -64.5q0 -22 6.5 -39t21 -32t38.5 -30.5t59 -33.5q87 -46 132.5 -94.5
t45.5 -118.5zM964 -73l-65 181h-287l-63 -181h-130l272 717h132l272 -717h-131zM766 485q-4 11 -6.5 27.5t-3.5 24.5h-3q-1 -9 -3.5 -24.5t-6.5 -27.5l-98 -276h220zM1284 542v-212h249v-103h-249v-300h-119v717h388v-102h-269z" />
    <glyph glyph-name="uni206D" unicode="&#x206d;" horiz-adv-x="2577" 
d="M100 1518v379h379v-138h-241v-241h-138zM2098 1759v138h379v-379h-138v241h-241zM100 -480v379h138v-241h241v-138h-379zM2098 -480v138h241v241h138v-379h-379zM1608 -480v138h339v-138h-339zM629 -480v138h339v-138h-339zM629 1759v138h339v-138h-339zM2477 49h-138
v339h138v-339zM2477 1028h-138v339h138v-339zM1119 -480v138h339v-138h-339zM238 49h-138v339h138v-339zM1119 1759v138h339v-138h-339zM1608 1759v138h339v-138h-339zM238 539h-138v339h138v-339zM238 1028h-138v339h138v-339zM2477 539h-138v339h138v-339zM2064 116
q0 -39 -13.5 -75.5t-44 -65t-79.5 -45.5t-119 -17q-23 0 -48 3.5t-48.5 9.5t-43 14t-31.5 16v130q18 -17 40.5 -30t47 -22t49 -14t47.5 -5q34 0 56.5 8t35.5 20.5t18 28.5t5 32q0 21 -8 38.5t-25 34.5t-44 34t-65 37q-46 24 -76.5 48t-49 49.5t-26.5 52.5t-8 57
q0 43 17.5 80t49.5 63.5t76.5 41.5t99.5 15q24 0 48 -2.5t45 -6.5t37.5 -9t25.5 -9v-125q-29 24 -71 37.5t-84 13.5q-56 0 -86.5 -25.5t-30.5 -64.5q0 -22 6.5 -39t21 -32t38.5 -30.5t59 -33.5q87 -46 132.5 -94.5t45.5 -118.5zM964 -73l-65 181h-287l-63 -181h-130l272 717
h132l272 -717h-131zM766 485q-4 11 -6.5 27.5t-3.5 24.5h-3q-1 -9 -3.5 -24.5t-6.5 -27.5l-98 -276h220zM1284 542v-212h249v-103h-249v-300h-119v717h388v-102h-269zM1501 810l-65 181h-287l-63 -181h-130l272 717h132l272 -717h-131zM1303 1368q-4 11 -6.5 27.5t-3.5 24.5
h-3q-1 -9 -3.5 -24.5t-6.5 -27.5l-98 -276h220z" />
    <glyph glyph-name="uni206e" unicode="&#x206e;" horiz-adv-x="2577" 
d="M100 1518v379h379v-138h-241v-241h-138zM2098 1759v138h379v-379h-138v241h-241zM100 -480v379h138v-241h241v-138h-379zM2098 -480v138h241v241h138v-379h-379zM1608 -480v138h339v-138h-339zM629 -480v138h339v-138h-339zM629 1759v138h339v-138h-339zM2477 49h-138
v339h138v-339zM2477 1028h-138v339h138v-339zM1119 -480v138h339v-138h-339zM238 49h-138v339h138v-339zM1119 1759v138h339v-138h-339zM1608 1759v138h339v-138h-339zM238 539h-138v339h138v-339zM238 1028h-138v339h138v-339zM2477 539h-138v339h138v-339zM1888 116
q0 -39 -13.5 -75.5t-44 -65t-79.5 -45.5t-119 -17q-23 0 -48 3.5t-48.5 9.5t-43 14t-31.5 16v130q18 -17 40.5 -30t47 -22t49 -14t47.5 -5q34 0 56.5 8t35.5 20.5t18 28.5t5 32q0 21 -8 38.5t-25 34.5t-44 34t-65 37q-46 24 -76.5 48t-49 49.5t-26.5 52.5t-8 57
q0 43 17.5 80t49.5 63.5t76.5 41.5t99.5 15q24 0 48 -2.5t45 -6.5t37.5 -9t25.5 -9v-125q-29 24 -71 37.5t-84 13.5q-56 0 -86.5 -25.5t-30.5 -64.5q0 -22 6.5 -39t21 -32t38.5 -30.5t59 -33.5q87 -46 132.5 -94.5t45.5 -118.5zM1903 810l-65 181h-287l-63 -181h-130
l272 717h132l272 -717h-131zM1705 1368q-4 11 -6.5 27.5t-3.5 24.5h-3q-1 -9 -3.5 -24.5t-6.5 -27.5l-98 -276h220zM1070 810l-328 531q-8 10 -15.5 25t-10.5 24h-3q1 -6 2 -22t2 -34t1.5 -34.5t0.5 -23.5v-466h-117v717h151l316 -518q7 -10 16 -26t14 -25h2q-1 5 -2 21.5
t-1.5 35t-1 35.5t-0.5 23v454h117v-717h-143zM1315 295q0 -83 -27.5 -151t-78.5 -116t-123 -74.5t-161 -26.5h-216v717h222q193 0 288.5 -88.5t95.5 -260.5zM1189 293q0 119 -67 184t-196 65h-98v-512h96q64 0 113.5 18.5t83.5 53t51 83t17 108.5z" />
    <glyph glyph-name="uni206f" unicode="&#x206f;" horiz-adv-x="2577" 
d="M100 1518v379h379v-138h-241v-241h-138zM2098 1759v138h379v-379h-138v241h-241zM100 -480v379h138v-241h241v-138h-379zM2098 -480v138h241v241h138v-379h-379zM1608 -480v138h339v-138h-339zM629 -480v138h339v-138h-339zM629 1759v138h339v-138h-339zM2477 49h-138
v339h138v-339zM2477 1028h-138v339h138v-339zM1119 -480v138h339v-138h-339zM238 49h-138v339h138v-339zM1119 1759v138h339v-138h-339zM1608 1759v138h339v-138h-339zM238 539h-138v339h138v-339zM238 1028h-138v339h138v-339zM2477 539h-138v339h138v-339zM1888 116
q0 -39 -13.5 -75.5t-44 -65t-79.5 -45.5t-119 -17q-23 0 -48 3.5t-48.5 9.5t-43 14t-31.5 16v130q18 -17 40.5 -30t47 -22t49 -14t47.5 -5q34 0 56.5 8t35.5 20.5t18 28.5t5 32q0 21 -8 38.5t-25 34.5t-44 34t-65 37q-46 24 -76.5 48t-49 49.5t-26.5 52.5t-8 57
q0 43 17.5 80t49.5 63.5t76.5 41.5t99.5 15q24 0 48 -2.5t45 -6.5t37.5 -9t25.5 -9v-125q-29 24 -71 37.5t-84 13.5q-56 0 -86.5 -25.5t-30.5 -64.5q0 -22 6.5 -39t21 -32t38.5 -30.5t59 -33.5q87 -46 132.5 -94.5t45.5 -118.5zM1070 810l-328 531q-8 10 -15.5 25t-10.5 24
h-3q1 -6 2 -22t2 -34t1.5 -34.5t0.5 -23.5v-466h-117v717h151l316 -518q7 -10 16 -26t14 -25h2q-1 5 -2 21.5t-1.5 35t-1 35.5t-0.5 23v454h117v-717h-143zM1315 295q0 -83 -27.5 -151t-78.5 -116t-123 -74.5t-161 -26.5h-216v717h222q193 0 288.5 -88.5t95.5 -260.5z
M1189 293q0 119 -67 184t-196 65h-98v-512h96q64 0 113.5 18.5t83.5 53t51 83t17 108.5zM2035 1178q0 -87 -25 -157t-70.5 -119.5t-109.5 -76t-143 -26.5q-77 0 -139.5 26.5t-107 74.5t-69 114.5t-24.5 146.5q0 82 23.5 152t68.5 120.5t110.5 79t149.5 28.5q75 0 136.5 -26
t106 -73.5t69 -114.5t24.5 -149zM1909 1167q0 66 -15.5 116.5t-43.5 84.5t-67.5 51t-88.5 17q-51 0 -92 -19.5t-69.5 -55t-44 -84t-15.5 -106.5q0 -63 16.5 -112t45.5 -83.5t68.5 -52.5t85.5 -18q49 0 89.5 16.5t69.5 49.5t45 82t16 114z" />
    <glyph glyph-name="uni2070" unicode="&#x2070;" horiz-adv-x="750" 
d="M365 864q-140 0 -216.5 110t-76.5 318q0 229 80 345t233 116q293 0 293 -440q0 -108 -21.5 -192t-61.5 -141t-98.5 -86.5t-131.5 -29.5zM379 1634q-85 0 -126.5 -82.5t-41.5 -253.5q0 -157 40.5 -236t125.5 -79q164 0 164 322q0 167 -41 248t-121 81z" />
    <glyph glyph-name="uni2071" unicode="&#x2071;" horiz-adv-x="352" 
d="M174 1620q-37 0 -60.5 21.5t-23.5 54.5q0 30 23.5 53t60.5 23q39 0 62.5 -23t23.5 -53q0 -33 -23.5 -54.5t-62.5 -21.5zM238 717h-127v719h127v-719z" />
    <glyph glyph-name="uni2074" unicode="&#x2074;" horiz-adv-x="750" 
d="M682 1087h-111v-202h-131v202h-393v93l369 555h155v-539h111v-109zM444 1608h-4q-12 -31 -39 -72l-217 -340h256v324q0 32 4 88z" />
    <glyph glyph-name="uni2075" unicode="&#x2075;" horiz-adv-x="750" 
d="M127 905v148q113 -72 199 -72t136 45t50 117q0 151 -205 151l-153 -8v453h456v-125h-329v-201q182 14 275 -61.5t93 -202.5t-87 -207t-238 -80q-123 0 -197 43z" />
    <glyph glyph-name="uni2076" unicode="&#x2076;" horiz-adv-x="750" 
d="M610 1718v-129q-14 10 -33.5 18.5t-40.5 14.5t-43 9t-40 3q-57 0 -99.5 -18t-77.5 -53q-30 -34 -52.5 -98t-22.5 -160h4q29 49 83.5 81.5t133.5 32.5q60 0 107.5 -19.5t80.5 -55t50.5 -85t17.5 -110.5q0 -62 -22.5 -114t-62.5 -90t-93.5 -59.5t-114.5 -21.5
q-63 0 -119.5 24t-99 74t-67.5 126t-25 180q0 117 28 207t78.5 152t120.5 94t154 32q43 0 83.5 -8t71.5 -27zM385 1313q-34 0 -63.5 -10.5t-52 -30.5t-35.5 -48.5t-13 -64.5q0 -34 11 -66t31.5 -57t49.5 -40t66 -15q75 0 117.5 46t42.5 118q0 77 -38.5 122.5t-115.5 45.5z
" />
    <glyph glyph-name="uni2077" unicode="&#x2077;" horiz-adv-x="750" 
d="M326 885h-148l322 741h-422v119h594v-53z" />
    <glyph glyph-name="uni2078" unicode="&#x2078;" horiz-adv-x="750" 
d="M514 1331q164 -71 164 -223q0 -115 -83 -179.5t-230 -64.5q-125 0 -209 64.5t-84 171.5q0 151 161 231q-131 76 -131 201q0 100 77 160.5t208 60.5q117 0 189.5 -57.5t72.5 -151.5q0 -135 -135 -213zM375 1393q137 57 137 139q0 102 -133 102q-62 0 -99.5 -27.5
t-37.5 -72.5q0 -84 133 -141zM369 1274q-158 -55 -158 -170q0 -51 46 -86t120 -35q72 0 118 35t46 82q0 114 -172 174z" />
    <glyph glyph-name="uni2079" unicode="&#x2079;" horiz-adv-x="750" 
d="M311 981q67 0 114 26t77 71.5t43.5 108.5t13.5 138h-4q-13 -28 -34.5 -51t-49 -40t-60.5 -26.5t-69 -9.5q-60 0 -109 19.5t-83.5 55t-53 84.5t-18.5 109q0 64 21 116.5t59 90.5t92 59t119 21q64 0 120.5 -25.5t99.5 -75.5t68 -125t25 -175q0 -105 -23.5 -195
t-70.5 -155.5t-116.5 -102.5t-160.5 -37q-48 0 -96.5 12t-85.5 33v127q19 -11 42 -20.5t47 -16.5t48 -11.5t45 -4.5zM373 1636q-34 0 -63 -11.5t-50 -33.5t-33 -53.5t-12 -71.5q0 -75 41 -118t111 -43q32 0 62.5 11t54.5 29.5t38.5 44.5t14.5 56q0 42 -12.5 77t-34.5 60
t-52 39t-65 14z" />
    <glyph glyph-name="uni207A" unicode="&#x207a;" horiz-adv-x="750" 
d="M657 1247h-231v-231h-100v231h-234v101h234v231h100v-231h231v-101z" />
    <glyph glyph-name="uni207B" unicode="&#x207b;" horiz-adv-x="750" 
d="M92 1348h565v-101h-565v101z" />
    <glyph glyph-name="uni207C" unicode="&#x207c;" horiz-adv-x="750" 
d="M92 1202h565v-100h-565v100zM92 1493h565v-100h-565v100z" />
    <glyph glyph-name="uni207D" unicode="&#x207d;" horiz-adv-x="618" 
d="M516 762h-127q-184 213 -184 524t184 533h129q-188 -230 -188 -533q0 -301 186 -524z" />
    <glyph glyph-name="uni207E" unicode="&#x207e;" horiz-adv-x="618" 
d="M100 762q189 223 189 524q0 303 -189 533h127q187 -222 187 -533t-187 -524h-127z" />
    <glyph glyph-name="uni207F" unicode="&#x207f;" horiz-adv-x="803" 
d="M238 717h-127v719h127v-115h4q67 135 211 135q118 0 186 -73.5t68 -206.5v-459h-132v450q0 176 -149 176q-76 0 -132 -60t-56 -144v-422z" />
    <glyph glyph-name="uni2080" unicode="&#x2080;" horiz-adv-x="750" 
d="M365 -262q-139 0 -216 109.5t-77 318.5q0 229 80 345t233 116q293 0 293 -441q0 -109 -21.5 -192.5t-61.5 -140.5t-98.5 -86t-131.5 -29zM379 508q-168 0 -168 -338q0 -158 40.5 -235.5t125.5 -77.5q164 0 164 319q0 167 -41 249.5t-121 82.5z" />
    <glyph glyph-name="uni2081" unicode="&#x2081;" horiz-adv-x="750" 
d="M668 -244h-504v113h184v594l-192 -55v124l323 97v-760h189v-113z" />
    <glyph glyph-name="uni2082" unicode="&#x2082;" horiz-adv-x="750" 
d="M657 -244h-553v115l240 235q105 103 132.5 157t27.5 110q0 57 -38 94t-99 37q-119 0 -217 -103v150q83 76 235 76q119 0 187.5 -65.5t68.5 -174.5q0 -154 -205 -348l-164 -156v-4h385v-123z" />
    <glyph glyph-name="uni2083" unicode="&#x2083;" horiz-adv-x="750" 
d="M129 -211v141q102 -75 217 -75q80 0 126 37.5t46 101.5q0 141 -219 141h-84v119h80q197 0 197 133q0 119 -144 119q-94 0 -186 -70v139q88 52 213 52q112 0 180 -59.5t68 -155.5q0 -152 -146 -205v-4q176 -41 176 -203q0 -117 -85 -190.5t-226 -73.5q-137 0 -213 53z" />
    <glyph glyph-name="uni2084" unicode="&#x2084;" horiz-adv-x="750" 
d="M682 -33h-111v-205h-131v205h-393v92l369 553h155v-536h111v-109zM444 487h-4q-12 -30 -39 -73l-217 -338h256v323q0 31 4 88z" />
    <glyph glyph-name="uni2085" unicode="&#x2085;" horiz-adv-x="750" 
d="M127 -221v145q113 -69 199 -69t136 45t50 114q0 154 -205 154l-153 -8v450h456v-123h-329v-200q182 12 275 -62.5t93 -204.5q0 -124 -87 -204t-238 -80q-123 0 -197 43z" />
    <glyph glyph-name="uni2086" unicode="&#x2086;" horiz-adv-x="750" 
d="M610 592v-129q-14 9 -33.5 17t-40.5 14.5t-43 10t-40 3.5q-57 0 -99.5 -18.5t-77.5 -55.5q-30 -34 -52.5 -97.5t-22.5 -160.5h4q29 51 83.5 84t133.5 33q60 0 107.5 -19.5t80.5 -55t50.5 -85.5t17.5 -110q0 -62 -22.5 -114t-62.5 -90t-93.5 -59.5t-114.5 -21.5
q-63 0 -119.5 24t-99 74t-67.5 125.5t-25 179.5q0 117 28 207.5t78.5 152.5t120.5 94t154 32q43 0 83.5 -9t71.5 -26zM385 186q-34 0 -63.5 -10.5t-52 -30.5t-35.5 -48.5t-13 -63.5q0 -34 11 -66t31.5 -57t49.5 -40t66 -15q75 0 117.5 44.5t42.5 118.5q0 78 -38.5 123
t-115.5 45z" />
    <glyph glyph-name="uni2087" unicode="&#x2087;" horiz-adv-x="750" 
d="M326 -244h-148l322 744h-422v116h594v-53z" />
    <glyph glyph-name="uni2088" unicode="&#x2088;" horiz-adv-x="750" 
d="M514 205q164 -72 164 -225q0 -113 -83 -177.5t-230 -64.5q-125 0 -209 64.5t-84 168.5q0 154 161 234q-131 74 -131 201q0 100 77 160.5t208 60.5q117 0 189.5 -57.5t72.5 -151.5q0 -135 -135 -213zM375 266q137 58 137 140q0 102 -133 102q-62 0 -99.5 -28.5
t-37.5 -71.5q0 -86 133 -142zM369 145q-158 -53 -158 -168q0 -51 46 -85.5t120 -34.5q72 0 118 33.5t46 82.5q0 113 -172 172z" />
    <glyph glyph-name="uni2089" unicode="&#x2089;" horiz-adv-x="750" 
d="M311 -145q67 0 114 26t77 71.5t43.5 108.5t13.5 138h-4q-13 -28 -34.5 -51t-49 -40t-60.5 -26.5t-69 -9.5q-60 0 -109 19t-83.5 54t-53 84.5t-18.5 110.5q0 64 21 116.5t59 90.5t92 59t119 21q64 0 120.5 -25.5t99.5 -75.5t68 -125.5t25 -175.5q0 -105 -23.5 -194.5
t-70.5 -155t-116.5 -102.5t-160.5 -37q-48 0 -96.5 11.5t-85.5 33.5v127q19 -11 42 -20.5t47 -17t48 -11.5t45 -4zM373 510q-34 0 -63 -11.5t-50 -33.5t-33 -53.5t-12 -71.5q0 -75 41 -118.5t111 -43.5q32 0 62.5 11t54.5 29.5t38.5 44t14.5 54.5q0 42 -12.5 77.5t-34.5 61
t-52 40t-65 14.5z" />
    <glyph glyph-name="uni208A" unicode="&#x208a;" horiz-adv-x="750" 
d="M657 121h-231v-234h-100v234h-234v98h234v234h100v-234h231v-98z" />
    <glyph glyph-name="uni208B" unicode="&#x208b;" horiz-adv-x="750" 
d="M92 219h565v-98h-565v98z" />
    <glyph glyph-name="uni208C" unicode="&#x208c;" horiz-adv-x="750" 
d="M92 76h565v-101h-565v101zM92 365h565v-101h-565v101z" />
    <glyph glyph-name="uni208D" unicode="&#x208d;" horiz-adv-x="618" 
d="M516 -365h-127q-184 211 -184 525q0 311 184 530h129q-188 -227 -188 -530q0 -301 186 -525z" />
    <glyph glyph-name="uni208E" unicode="&#x208e;" horiz-adv-x="618" 
d="M100 -365q189 224 189 525q0 303 -189 530h127q187 -219 187 -530q0 -314 -187 -525h-127z" />
    <glyph glyph-name="uni2090" unicode="&#x2090;" horiz-adv-x="645" 
d="M543 -272h-127v79h-2q-56 -98 -174 -98q-82 0 -130.5 45t-48.5 119q0 156 195 184l160 23q0 113 -111 113q-100 0 -188 -64v115q86 49 202 49q224 0 224 -215v-350zM416 -51v47l-121 -16q-109 -15 -109 -93q0 -80 95 -80q59 0 97 39t38 103z" />
    <glyph glyph-name="uni2091" unicode="&#x2091;" horiz-adv-x="637" 
d="M565 -43h-377q11 -143 164 -143q92 0 170 53v-113q-71 -45 -192 -45q-125 0 -197 76t-72 213q0 129 74 212t187 83q112 0 177.5 -73t65.5 -197v-66zM442 55q-2 138 -123 138q-118 0 -131 -138h254z" />
    <glyph glyph-name="uni2092" unicode="&#x2092;" horiz-adv-x="700" 
d="M344 -291q-129 0 -206 80t-77 207q0 133 81 215t214 82q127 0 205 -80t78 -207q0 -135 -82 -216t-213 -81zM350 184q-74 0 -117 -49t-43 -135t44.5 -134t115.5 -48q74 0 117 48t43 134q0 88 -43 136t-117 48z" />
    <glyph glyph-name="uni2093" unicode="&#x2093;" horiz-adv-x="547" 
d="M528 274l-186 -276l182 -270h-143l-107 178h-2l-110 -178h-144l191 268l-182 278h145l102 -188h2l111 188h141z" />
    <glyph glyph-name="uni2094" unicode="&#x2094;" horiz-adv-x="637" 
d="M72 45h377q-11 145 -164 145q-92 0 -170 -53v113q73 45 192 45q123 0 195.5 -77t72.5 -214q0 -129 -73.5 -213t-186.5 -84q-112 0 -177.5 75t-65.5 198v65zM449 -51h-254q2 -142 122 -142q117 0 132 142z" />
    <glyph glyph-name="Euro" unicode="&#x20ac;" horiz-adv-x="1104" 
d="M1014 50q-133 -74 -282 -74q-427 0 -509 506h-121v140h108q-4 31 -4 77q0 48 6 108h-110v140h131q51 240 192.5 375.5t343.5 135.5q137 0 245 -56v-162q-114 78 -256 78q-125 0 -222.5 -100.5t-136.5 -270.5h497v-140h-519q-8 -99 -1 -185h520v-140h-504
q72 -366 350 -366q131 0 272 87v-153z" />
    <glyph glyph-name="uni20DD" unicode="&#x20dd;" horiz-adv-x="1696" 
d="M107 717q0 102 25 197t72 177t113.5 150t148.5 116t178.5 74.5t203.5 26.5t203.5 -26.5t178.5 -74.5t148.5 -116t113.5 -150t72 -177t25 -197t-25 -197t-72 -177t-113.5 -150t-148.5 -116t-178.5 -74.5t-203.5 -26.5t-203.5 26.5t-178.5 74.5t-148.5 116t-113.5 150
t-72 177t-25 197zM207 717q0 -90 23 -173.5t65 -156t101 -131.5t130 -101.5t152.5 -65.5t169.5 -23q143 0 261 51t202.5 139.5t131 207t46.5 253.5t-47 253.5t-132 207t-202.5 139.5t-259.5 51t-260 -51t-202.5 -139.5t-131.5 -207t-47 -253.5z" />
    <glyph glyph-name="uni2100" unicode="&#x2100;" horiz-adv-x="1647" 
d="M693 727h-130l21 109h-4q-47 -62 -101 -92.5t-122 -30.5q-46 0 -84 18t-65.5 53t-42.5 86.5t-15 118.5q0 96 26 179t72.5 144.5t110.5 97t140 35.5q127 0 181 -114h4l22 103h129zM650 1169q0 35 -10.5 65t-30 51.5t-48 34t-64.5 12.5q-55 0 -95 -26.5t-66.5 -70
t-39.5 -98.5t-13 -113q0 -56 8.5 -95.5t26 -64t43 -35.5t58.5 -11q60 0 103.5 38t72 92.5t42 115t13.5 105.5zM1488 539q-80 65 -170 65q-119 0 -191 -98q-69 -96 -69 -223q0 -189 153 -189q85 0 203 80l-31 -141q-101 -53 -192 -53q-65 0 -115 20.5t-84.5 59t-52.5 93
t-18 122.5q0 193 112 317q114 129 299 129q116 0 187 -49zM1572 1434l-1229 -1434h-147l1228 1434h148z" />
    <glyph glyph-name="uni2101" unicode="&#x2101;" horiz-adv-x="1647" 
d="M680 727h-130l21 109h-4q-47 -62 -101 -92.5t-122 -30.5q-46 0 -84 18t-65.5 53t-42.5 86.5t-15 118.5q0 96 26 179t72.5 144.5t110.5 97t140 35.5q127 0 181 -114h4l22 103h129zM637 1169q0 35 -10.5 65t-30 51.5t-48 34t-64.5 12.5q-55 0 -95 -26.5t-66.5 -70
t-39.5 -98.5t-13 -113q0 -56 8.5 -95.5t26 -64t43 -35.5t58.5 -11q60 0 103.5 38t72 92.5t42 115t13.5 105.5zM1559 1434l-1229 -1434h-147l1228 1434h148zM1480 551q-44 30 -93.5 43.5t-91.5 13.5q-24 0 -46.5 -5.5t-40 -16.5t-28.5 -27.5t-11 -39.5q0 -39 30 -62.5
t93 -49.5q91 -38 132 -84.5t41 -112.5q0 -37 -14.5 -77.5t-46.5 -74.5t-82.5 -56t-123.5 -22q-32 0 -65 5t-64 14t-57 21t-43 27l27 115q22 -18 49 -31.5t56 -22.5t58 -13.5t53 -4.5q25 0 48 5.5t40.5 17.5t28 30t10.5 43t-11 42t-30.5 30.5t-46.5 25t-58 26.5
q-40 19 -68.5 37.5t-46.5 41t-26.5 51t-8.5 66.5q0 43 19 82.5t53.5 68.5t83 46.5t107.5 17.5q65 0 116 -16t85 -36z" />
    <glyph glyph-name="uni2102" unicode="&#x2102;" horiz-adv-x="1317" 
d="M1227 51q-156 -76 -410 -76q-162 0 -293 49t-223 141t-142 224t-50 297q0 172 56 314t157.5 244t242 158t308.5 56q209 0 354 -53v-120q-38 18 -80 31t-87 21.5t-90.5 12t-88.5 3.5q-110 0 -210 -27t-182 -83v-1065q78 -48 176 -73t216 -25q95 0 182.5 23t163.5 68v-120z
M232 697q0 -141 40.5 -251t116.5 -189v900q-74 -81 -115.5 -195t-41.5 -265z" />
    <glyph glyph-name="uni2103" unicode="&#x2103;" horiz-adv-x="2040" 
d="M385 897q-56 0 -106.5 21.5t-88 59.5t-59.5 88.5t-22 109.5q0 57 21.5 106.5t58.5 87t87 59t107 21.5q58 0 109 -22t88.5 -59.5t59.5 -87t22 -105.5t-22 -107t-59.5 -89t-88 -60.5t-107.5 -22.5zM385 1333q-33 0 -62 -12t-50 -33.5t-33.5 -50t-12.5 -61.5t12 -62.5
t33 -51.5t49.5 -35t61.5 -13t62 13t51 35t34.5 51.5t12.5 62.5t-12.5 61.5t-33.5 50t-50 33.5t-62 12zM1935 59q-78 -42 -177 -63t-218 -21q-153 0 -277.5 52.5t-212.5 147.5t-136 226t-48 289q0 171 55.5 312.5t153 243t231.5 157t291 55.5q205 0 338 -59v-178
q-154 86 -340 86q-122 0 -223.5 -43t-174.5 -122.5t-114 -191.5t-41 -250q0 -130 37.5 -236t106 -181t164.5 -115.5t213 -40.5q214 0 372 96v-164z" />
    <glyph glyph-name="uni2104" unicode="&#x2104;" horiz-adv-x="1202" 
d="M1128 0h-629v311q-84 15 -157 50.5t-127 92.5t-85 135.5t-31 177.5q0 106 31 190t85 146.5t127 103t157 59.5v168h168v-153q123 -3 241 -48v-170q-56 26 -117 42.5t-124 21.5v-674q64 5 126 21.5t115 41.5v-154q-60 -25 -120.5 -39t-120.5 -19v-152h461v-152zM275 782
q0 -70 17 -123.5t47 -91.5t71 -62.5t89 -37.5v646q-48 -14 -89 -39.5t-71 -66t-47 -96.5t-17 -129z" />
    <glyph glyph-name="afii61248" unicode="&#x2105;" horiz-adv-x="1647" 
d="M717 1272q-80 65 -170 65q-60 0 -108 -26.5t-82 -70.5t-52 -102.5t-18 -121.5q0 -189 153 -189q85 0 203 80l-31 -141q-101 -53 -192 -53q-65 0 -115 20.5t-84.5 59t-52.5 93t-18 122.5q0 95 30 176.5t84 141.5t129.5 94t167.5 34q116 0 187 -49zM1483 1434l-1229 -1434
h-147l1228 1434h148zM1120 -20q-70 0 -124 21t-90.5 60t-55.5 93.5t-19 121.5q0 89 30 169.5t82.5 142t124.5 97.5t157 36q65 0 117.5 -20.5t89 -58.5t56 -92.5t19.5 -121.5q0 -89 -29 -170t-81 -142.5t-122.5 -98.5t-154.5 -37zM1221 610q-54 0 -101 -29.5t-81.5 -77
t-54 -108t-19.5 -121.5q0 -184 159 -184q54 0 99.5 28t78.5 74.5t51.5 106.5t18.5 125q0 186 -151 186z" />
    <glyph glyph-name="uni2106" unicode="&#x2106;" horiz-adv-x="1647" 
d="M690 1272q-80 65 -170 65q-121 0 -191 -98q-35 -48 -52 -104t-17 -119q0 -189 153 -189q85 0 203 80l-31 -141q-101 -53 -192 -53q-65 0 -115 20.5t-84.5 59t-52.5 93t-18 122.5q0 193 112 317q114 129 299 129q116 0 187 -49zM1456 1434l-1229 -1434h-147l1228 1434h148
zM1394 0h-130l22 110h-4q-51 -66 -106.5 -95t-124.5 -29q-34 0 -68 12t-61 39t-43.5 69.5t-16.5 103.5q0 14 3.5 50t12.5 80l77 357h129l-82 -383q-5 -20 -7.5 -47t-2.5 -48q0 -55 31.5 -91.5t96.5 -36.5q43 0 77.5 16t60 44t43 66.5t26.5 83.5l84 396h131z" />
    <glyph glyph-name="uni2107" unicode="&#x2107;" horiz-adv-x="1108" 
d="M1017 53q-84 -38 -177 -58t-196 -20q-123 0 -220.5 29t-165.5 82t-104 128t-36 167q0 67 21 125.5t60 106t95.5 82t128.5 53.5v6q-256 80 -256 317q0 166 135 277q139 110 354 110q90 0 171 -17t153 -52v-170q-154 88 -328 88q-71 0 -128 -16.5t-98 -47.5t-63 -74
t-22 -96q0 -56 26 -103t75 -81.5t118.5 -54t155.5 -19.5h104v-151h-106q-420 0 -420 -271q0 -62 24.5 -111.5t70.5 -84t112 -52.5t149 -18q200 0 367 92v-166z" />
    <glyph glyph-name="uni2108" unicode="&#x2108;" horiz-adv-x="1262" 
d="M104 59v164q79 -48 174 -72t207 -24q108 0 197 34.5t154.5 100.5t105 161t47.5 216h-635v152h633q-13 122 -54.5 218t-107.5 162t-155 101t-197 35q-202 0 -369 -86v176q153 61 369 61q309 0 502 -209q192 -204 192 -553q0 -322 -186 -520q-186 -201 -487 -201
q-116 0 -213.5 21t-176.5 63z" />
    <glyph glyph-name="uni2109" unicode="&#x2109;" horiz-adv-x="1771" 
d="M385 897q-56 0 -106.5 21.5t-88 59.5t-59.5 88.5t-22 109.5q0 57 21.5 106.5t58.5 87t87 59t107 21.5q58 0 109 -22t88.5 -59.5t59.5 -87t22 -105.5t-22 -107t-59.5 -89t-88 -60.5t-107.5 -22.5zM385 1333q-33 0 -62 -12t-50 -33.5t-33.5 -50t-12.5 -61.5t12 -62.5
t33 -51.5t49.5 -35t61.5 -13t62 13t51 35t34.5 51.5t12.5 62.5t-12.5 61.5t-33.5 50t-50 33.5t-62 12zM1687 1282h-559v-496h518v-151h-518v-635h-168v1434h727v-152z" />
    <glyph glyph-name="uni210A" unicode="&#x210a;" horiz-adv-x="1322" 
d="M-30 -218q0 94 38.5 157.5t97.5 104t130 63.5t137 37v4q-38 9 -74.5 34.5t-66 65.5t-47.5 94t-18 119q0 68 15 138.5t44.5 136t72.5 122.5t99 99.5t123.5 67t146.5 24.5q34 0 76 -6.5t84.5 -17.5t84 -27.5t76.5 -35.5l-127 -678q69 30 121.5 69t98.5 91t91 119.5
t99 155.5l43 -20q-55 -102 -106 -178.5t-105 -133t-115.5 -96t-137.5 -67.5l-14 -68q-38 -188 -98.5 -311t-133.5 -195t-154 -101t-162 -29q-68 0 -126.5 18.5t-101 52.5t-67 82.5t-24.5 108.5zM822 947q-29 23 -67.5 40t-89.5 17q-82 0 -144 -43t-103 -115.5t-62 -169
t-21 -202.5q0 -78 17.5 -132.5t47 -89t67.5 -50t79 -15.5q38 0 72 8.5t70 23.5zM340 -420q60 0 109 24t87 76.5t67.5 136t50.5 202.5q8 47 14 84.5t10 57.5h-4q-32 -10 -72 -19t-79 -17q-90 -18 -168 -40t-135 -57.5t-90 -88.5t-33 -133q0 -51 15.5 -92.5t46 -71t76 -46
t105.5 -16.5z" />
    <glyph glyph-name="uni210B" unicode="&#x210b;" horiz-adv-x="2076" 
d="M734 818q35 160 95.5 297t143.5 227q-55 7 -103.5 14t-98 12t-103.5 8.5t-118 3.5q-77 0 -136.5 -22t-100 -61.5t-61.5 -94.5t-21 -122q0 -63 18.5 -106t48.5 -70t68 -39t77 -12q42 0 77.5 10t72.5 32l20 -39q-18 -13 -42 -26t-53 -23t-62 -16t-67 -6q-45 0 -94 13.5
t-90.5 45t-68.5 84t-27 130.5q0 71 26 137t79 117t133.5 81.5t188.5 30.5q57 0 117.5 -5t121 -12.5t120 -15t114.5 -13.5q46 41 97 63t108 22q32 0 49 -15.5t17 -40.5q0 -32 -43 -53.5t-143 -21.5q-19 0 -37 1t-30 3q-31 -31 -49 -79t-30 -112.5t-22.5 -146.5t-26.5 -181
q-5 -34 -11 -66t-12 -63q93 36 225.5 57.5t313.5 42.5q20 87 45.5 170.5t55.5 157.5t65 137t75 108t84.5 70.5t93.5 25.5q93 0 141 -55.5t48 -151.5q0 -116 -39 -201.5t-103.5 -144t-147.5 -92t-172 -45.5q-28 -150 -44 -277t-16 -230q0 -97 28 -146.5t79 -49.5q25 0 46.5 8
t41.5 27t41.5 50.5t47.5 78.5l36 -19q-25 -50 -52.5 -92.5t-61 -74t-75.5 -49t-95 -17.5t-91.5 19.5t-63.5 53.5t-37 79.5t-12 97.5q0 39 4.5 95t13.5 123.5t22.5 144t31.5 156.5q-175 -21 -312.5 -55.5t-239.5 -103.5q-45 -186 -103.5 -305t-124.5 -187t-137.5 -93.5
t-141.5 -25.5q-77 0 -131.5 25.5t-89 65t-51 89t-16.5 97.5q0 35 8 66.5t23 55t37 37t50 13.5q27 0 48 -16t21 -50q0 -26 -14 -40t-30.5 -29t-30 -37.5t-13.5 -66.5q0 -35 14 -65t40 -52.5t62.5 -35t80.5 -12.5q64 0 110 25t79 73t57 117.5t44.5 158t41.5 195.5t48 229z
M1826 1413q-49 0 -86 -47t-67 -128t-55 -190.5t-49 -235.5q180 25 271.5 136.5t91.5 292.5q0 34 -6.5 65t-19.5 55t-33 38t-47 14z" />
    <glyph glyph-name="uni210C" unicode="&#x210c;" horiz-adv-x="1979" 
d="M1513 -25q-34 0 -60.5 17.5t-45 49t-28 75.5t-9.5 97v562l-223 -224l-196 196l-136 -131v-135q0 -54 -19 -112.5t-52 -115t-77.5 -107t-95 -88.5t-104.5 -60.5t-107 -22.5l-149 151l122 121l161 -165q31 19 59 42t49 59.5t33 91t12 136.5v654q0 53 -3.5 104t-21.5 91
t-55 64.5t-104 24.5q-50 0 -99 -22.5t-87.5 -58t-62.5 -78.5t-24 -84q0 -24 19 -50.5t47 -54t61.5 -56.5t61.5 -59t47 -60.5t19 -61.5q0 -26 -10.5 -52.5t-33.5 -57.5t-61 -66.5t-92 -78.5l-41 40q29 27 47 45.5t28 32.5t13.5 26t3.5 26q0 27 -18 53.5t-45 52t-58 51.5
t-58 54t-45 57.5t-18 62.5q0 32 20.5 78t56 96.5t84.5 100.5t107 89.5t122 64t129 24.5q55 0 99 -21t75 -64t48 -107t17 -150v-437l219 219l196 -196l140 141v216q0 54 19 112.5t52 115t77.5 107t95 88.5t105 60.5t106.5 22.5l135 -137l-122 -121l-147 151q-31 -19 -59 -42
t-49 -59.5t-33 -91t-12 -136.5v-851q0 -30 2.5 -60t10 -54t20 -39.5t32.5 -15.5q39 0 80 39t99 107l40 -38q-36 -44 -76 -88t-80.5 -79.5t-79.5 -58t-73 -22.5z" />
    <glyph glyph-name="uni210D" unicode="&#x210d;" horiz-adv-x="1569" 
d="M1381 0h-324v680h-546v-680h-323v1434h323v-654h546v654h324v-1434zM1281 1334h-124v-1234h124v1234zM411 1334h-123v-1234h123v1234z" />
    <glyph glyph-name="uni210E" unicode="&#x210e;" horiz-adv-x="1193" 
d="M1041 766q0 -13 -3.5 -39.5t-8 -56.5t-10 -59.5t-10.5 -49.5l-119 -561h-166l125 600q4 16 8 37t7 42t5 38.5t2 27.5q0 78 -35.5 121t-109.5 43q-64 0 -128 -37.5t-119 -97t-95.5 -133t-56.5 -145.5l-107 -496h-166l324 1516h164l-156 -732h4q37 57 81 105.5t93.5 84
t104 55.5t112.5 20q128 0 194 -75.5t66 -207.5z" />
    <glyph glyph-name="uni210F" unicode="&#x210f;" horiz-adv-x="1193" 
d="M1041 766q0 -13 -3.5 -39.5t-8 -56.5t-10 -59.5t-10.5 -49.5l-119 -561h-166l125 600q4 16 8 37t7 42t5 38.5t2 27.5q0 78 -35.5 121t-109.5 43q-64 0 -128 -37.5t-119 -97t-95.5 -133t-56.5 -145.5l-107 -496h-166l257 1202h-135l28 133h135l39 181h164l-39 -181h332
l-28 -133h-332l-89 -418h4q37 57 81 105.5t93.5 84t104 55.5t112.5 20q128 0 194 -75.5t66 -207.5z" />
    <glyph glyph-name="uni2110" unicode="&#x2110;" horiz-adv-x="1253" 
d="M738 818q17 79 41 154t54 142t66 124t77 101q-53 9 -104 18t-101.5 16.5t-101.5 12t-104 4.5q-81 0 -140 -23.5t-97.5 -62t-57 -88t-18.5 -102.5q0 -57 18.5 -98t48.5 -67.5t68 -39t77 -12.5q42 0 77.5 10t72.5 32l20 -39q-18 -13 -42 -26t-53 -23t-62 -16t-67 -6
q-45 0 -94 13.5t-90.5 45t-68.5 84t-27 130.5q0 67 28 127.5t83 106t137 72t189 26.5q65 0 125 -6t115.5 -14.5t108 -18t102.5 -16.5q45 38 95 59t105 21q32 0 49 -13.5t17 -38.5q0 -16 -10.5 -30.5t-33 -25.5t-57.5 -17.5t-85 -6.5q-19 0 -37 1t-30 3q-31 -31 -49 -78
t-30 -111t-22.5 -145t-26.5 -180q-28 -174 -64.5 -303.5t-80 -223t-92.5 -154.5t-101.5 -97t-106.5 -50t-108 -14q-77 0 -131.5 25.5t-89 65t-51 89t-16.5 97.5q0 35 8 66.5t23 55t37 37t50 13.5q27 0 48 -16t21 -50q0 -26 -14 -40t-30.5 -29t-30 -37.5t-13.5 -66.5
q0 -35 14 -65t40 -52.5t62.5 -35t80.5 -12.5q64 0 110 25t79 73t57 117.5t44.5 158t41.5 195.5t48 229z" />
    <glyph glyph-name="Ifraktur" unicode="&#x2111;" horiz-adv-x="982" 
d="M333 248l161 -165q31 19 59 42t49 59.5t33 91t12 136.5v654q0 53 -3.5 104t-21.5 91t-55 64.5t-104 24.5q-50 0 -99 -22.5t-87.5 -58t-62.5 -78.5t-24 -84q0 -24 19 -50.5t47 -54t61.5 -56.5t61.5 -59t47 -60.5t19 -61.5q0 -26 -10.5 -52.5t-33.5 -57.5t-61 -66.5
t-92 -78.5l-41 40q29 27 47 45.5t28 32.5t13.5 26t3.5 26q0 27 -18 53.5t-45 52t-58 51.5t-58 54t-45 57.5t-18 62.5q0 32 20.5 78t56 96.5t84.5 100.5t107 89.5t122 64t129 24.5q55 0 99 -21t75 -64t48 -107t17 -150v-640q0 -54 -19 -112.5t-52 -115t-77.5 -107t-95 -88.5
t-104.5 -60.5t-107 -22.5l-149 151z" />
    <glyph glyph-name="uni2112" unicode="&#x2112;" horiz-adv-x="1359" 
d="M630 770q-112 7 -191.5 37.5t-130.5 76t-74.5 102t-23.5 116.5q0 124 69.5 206t222.5 127l15 -32q-40 -12 -74.5 -33t-60 -53.5t-40 -78t-14.5 -107.5q0 -71 23 -127t64.5 -96.5t98.5 -65t125 -33.5q37 168 87.5 290t107.5 201.5t117 118t117 38.5q49 0 85 -16t60 -44.5
t35.5 -68t11.5 -86.5q0 -75 -19 -136t-52.5 -110.5t-79.5 -87.5t-99 -66t-111.5 -46.5t-117.5 -28.5q-29 -198 -79.5 -338t-119.5 -232q54 -27 106.5 -55.5t104.5 -52t103.5 -39t104.5 -15.5q70 0 101.5 34.5t31.5 90.5q0 33 -10 58.5t-28 48.5l22 22q45 -14 67.5 -40.5
t22.5 -74.5q0 -38 -15 -74t-46.5 -63.5t-81 -44.5t-119.5 -17q-66 0 -125 12.5t-113 32t-103.5 43t-95.5 46.5q-73 -73 -147.5 -103.5t-140.5 -30.5q-78 0 -114.5 37.5t-36.5 95.5q0 39 17 70.5t46 53.5t69 34t86 12q54 0 103 -11t97 -29q26 57 46 122.5t36 132t29 131
t26 121.5zM1065 1413q-45 0 -85 -27.5t-74 -96t-63.5 -184.5t-53.5 -293q80 11 149.5 46t120.5 90t80.5 129t29.5 164q0 36 -5.5 67t-17.5 54.5t-32 37t-49 13.5zM228 20q67 0 118 33.5t90 90.5q-47 20 -92 33.5t-91 14.5q-63 0 -92 -27t-29 -66q0 -34 24 -56.5t72 -22.5z
" />
    <glyph glyph-name="afii61289" unicode="&#x2113;" horiz-adv-x="744" 
d="M40 422l179 235v455q0 225 61 301q63 78 172 78q50 0 90.5 -18t69 -49.5t44 -76t15.5 -96.5q0 -97 -70.5 -243t-214.5 -342v-416q0 -45 3.5 -71.5t10.5 -39.5t18 -16.5t26 -3.5q49 0 198 106v-162q-112 -88 -225 -88q-198 0 -198 242v225l-80 -98zM386 899q54 94 86 154
t41 88q19 57 19 110q0 119 -76 119q-28 0 -49 -31q-21 -30 -21 -213v-227z" />
    <glyph glyph-name="uni2114" unicode="&#x2114;" horiz-adv-x="1720" 
d="M345 1335h332v181h164v-181h332v-133h-332v-358h4q120 205 354 205q98 0 176 -37.5t132 -104.5t83 -160t29 -204q0 -129 -32 -233.5t-92.5 -179t-147 -115t-195.5 -40.5q-203 0 -307 172h-4v-147h-164v1202h-332v-1202h-164v1202h-135v133h135v181h164v-181zM1451 545
q0 86 -20.5 153.5t-58.5 114.5t-92.5 71.5t-121.5 24.5q-71 0 -129.5 -26t-100 -72.5t-64.5 -110.5t-23 -139v-143q0 -64 22 -119t61.5 -96t93 -64.5t116.5 -23.5q73 0 132 29t100 84.5t63 135t22 181.5z" />
    <glyph glyph-name="uni2115" unicode="&#x2115;" horiz-adv-x="1569" 
d="M1405 0h-150l-987 993h-4v-993h-100v1434h147l990 -992h4v992h100v-1434zM1305 100v193l-1041 1041v-196z" />
    <glyph glyph-name="afii61352" unicode="&#x2116;" horiz-adv-x="2298" 
d="M1821 604q-89 0 -158 28.5t-116 82.5t-72 131.5t-25 175.5q0 210 101 321t288 111q178 0 270.5 -107.5t92.5 -310.5q0 -99 -26 -179t-75.5 -136t-120 -86.5t-159.5 -30.5zM1831 1319q-109 0 -169 -76.5t-60 -216.5q0 -287 225 -287q221 0 221 289q0 291 -217 291zM1282 0
h-209l-674 1137q-15 28 -26 49.5t-19 38.5h-6q5 -23 6.5 -72t1.5 -123v-1030h-168v1434h220l710 -1213h4q-5 25 -6.5 77t-1.5 132v1004h168v-1434zM2171 317h-690v134h690v-134z" />
    <glyph glyph-name="uni2117" unicode="&#x2117;" horiz-adv-x="1823" 
d="M911 -33q-103 0 -198.5 27t-178.5 76t-151.5 117.5t-117.5 152t-76 179t-27 198.5t27 199t76 179t118 151.5t152 117t178.5 75.5t197.5 27q103 0 198.5 -27t179 -76t152 -117.5t117.5 -151.5t76 -178.5t27 -198.5t-27 -198.5t-75.5 -179t-117 -152t-152 -117.5
t-179.5 -76t-199 -27zM911 1378q-91 0 -175 -23.5t-157.5 -67t-134 -103.5t-103.5 -133.5t-67 -158t-24 -175.5q0 -137 52.5 -257.5t143 -210.5t210.5 -142t255 -52q91 0 175.5 24t158 67t134 103.5t104 134.5t67 158t23.5 175q0 90 -23.5 174.5t-67 158t-104 134
t-134 103.5t-158 67t-175.5 24zM780 573v-325h-131v954h287q168 0 260 -77.5t92 -227.5q0 -58 -20 -115.5t-64 -104t-114 -75.5t-170 -29h-140zM780 1087v-399h129q73 0 120.5 17.5t75 46.5t38 65t10.5 74q0 46 -13 82.5t-41.5 61.5t-74 38.5t-109.5 13.5h-135z" />
    <glyph glyph-name="weierstrass" unicode="&#x2118;" horiz-adv-x="1265" 
d="M450 1007q-36 -34 -66.5 -71t-53 -80.5t-35.5 -96.5t-13 -119q0 -67 11.5 -151.5t38.5 -181.5q68 117 136.5 228.5t140.5 208t149.5 174t162.5 126.5q63 -30 106.5 -72.5t71.5 -93t40.5 -108t12.5 -118.5q0 -79 -19.5 -159.5t-53 -156t-78.5 -141.5t-95.5 -114.5
t-104 -77t-104.5 -28.5q-23 0 -48.5 5.5t-49.5 14.5t-44.5 20.5t-35.5 23.5l80 148q57 -35 114.5 -60.5t127.5 -30.5q91 73 142.5 185.5t51.5 246.5q0 65 -13 123t-38 106t-62.5 84t-86.5 59q-44 -27 -98.5 -86.5t-116 -145t-128.5 -194.5t-136 -233q47 -125 76 -237.5
t29 -217.5q0 -26 -12.5 -56t-33.5 -59.5t-48.5 -57.5t-57 -49t-59.5 -33.5t-56 -12.5q-25 0 -49 11t-42.5 30.5t-29.5 47t-11 59.5q0 97 40.5 207t119.5 243q-12 39 -27 88t-29 105.5t-23.5 119t-9.5 130.5q0 31 9.5 70t27 81.5t42 88t55 89t66.5 83.5t75 73zM243 44
q-32 -57 -50.5 -114t-18.5 -120q0 -30 5.5 -62.5t19 -59.5t36.5 -44.5t58 -17.5q4 23 5.5 46.5t1.5 49.5q0 44 -4.5 89t-12 87.5t-17 79.5t-19.5 66h-4z" />
    <glyph glyph-name="uni2119" unicode="&#x2119;" horiz-adv-x="1218" 
d="M511 567v-567h-323v1434h501q115 0 199 -30.5t139 -87.5t82 -138t27 -182q0 -106 -34 -186.5t-95 -134.5t-144 -81t-180 -27h-172zM773 667v667h-262v-667h262zM1030 995q0 133 -41.5 209.5t-115.5 107.5v-616q39 20 68.5 46.5t49 62.5t29.5 83t10 107zM411 100v1234
h-123v-1234h123z" />
    <glyph glyph-name="uni211A" unicode="&#x211a;" horiz-adv-x="1544" 
d="M1355 -175q38 0 69 4.5t61 13.5v-196q-20 -9 -39.5 -16t-40.5 -12.5t-46 -8t-57 -2.5q-68 0 -136 14.5t-139.5 55t-147.5 112t-161 186.5q-147 14 -262.5 72t-195 152t-121.5 220.5t-42 276.5q0 179 50 320.5t140.5 239.5t218 149.5t282.5 51.5q150 0 272 -51t208 -146
t133 -230t47 -304q0 -136 -30.5 -251.5t-85.5 -205.5t-131.5 -152.5t-168.5 -92.5q47 -64 91 -103.5t84.5 -61t77.5 -28.5t70 -7zM776 1374q-91 0 -169.5 -22.5t-143.5 -65.5v-1141q68 -44 145.5 -65.5t161.5 -21.5q88 0 167 22t147 65v1144q-64 42 -141 63.5t-167 21.5z
M197 683q0 -149 44.5 -263t121.5 -193v973q-81 -91 -123.5 -221.5t-42.5 -295.5zM1348 704q0 159 -42 286t-122 215v-976q77 82 120.5 201t43.5 274zM1308 -318q37 0 64 4t51 12v70q-12 -3 -31.5 -5t-38.5 -2q-59 0 -107 10.5t-94 37.5t-93.5 74t-104.5 121q-29 -9 -66 -16
t-67 -9q74 -96 138 -154t122 -90t113.5 -42.5t113.5 -10.5z" />
    <glyph glyph-name="uni211B" unicode="&#x211b;" horiz-adv-x="1711" 
d="M1545 1079q0 -71 -29.5 -129t-77 -101.5t-107.5 -72.5t-122 -43q59 -23 95.5 -54.5t56.5 -69.5t27 -81.5t7 -91.5q0 -57 -5 -117t-5 -121q0 -77 26 -117.5t80 -40.5q53 0 89.5 41t67.5 110l39 -20q-17 -42 -39.5 -78t-53.5 -63t-72.5 -42t-98.5 -15q-63 0 -102.5 20.5
t-62 55.5t-31 80.5t-8.5 96.5q0 40 3.5 79.5t8 78t8 75.5t3.5 71q0 74 -19 121t-76 67q-100 -20 -195 -20q-20 0 -38 1.5t-30 3.5q-26 -158 -61.5 -273.5t-77.5 -196.5t-89.5 -131.5t-97.5 -78.5t-102 -38t-103 -10q-77 0 -131.5 25.5t-89 65t-51 89t-16.5 97.5q0 35 8 66.5
t23 55t37 37t50 13.5q27 0 48 -16t21 -50q0 -26 -14 -40t-30.5 -29t-30 -37.5t-13.5 -66.5q0 -35 14 -65t40 -52.5t62.5 -35t80.5 -12.5q64 0 110 25t79 72.5t57 116.5t45 157.5t41.5 196t47.5 230.5q25 115 56 206.5t72.5 162.5t95 123t122.5 89q-40 8 -80 11t-82 3
q-155 0 -279.5 -33.5t-211.5 -93t-134 -141t-47 -176.5q0 -54 16 -94.5t43 -68t63.5 -41t78.5 -13.5q22 0 40.5 2.5t36.5 7.5t36 13t38 19l21 -39q-51 -35 -109.5 -53t-118.5 -18q-53 0 -101 15.5t-85 47.5t-59 81.5t-22 117.5q0 95 56 187t162 164t257.5 116.5t342.5 44.5
q142 0 253 -27.5t187 -77.5t116 -120t40 -154zM1142 757q58 8 105 37.5t80.5 73.5t51.5 98.5t18 113.5q0 51 -14.5 98.5t-46 88t-80 71.5t-115.5 48q-50 -26 -84.5 -69.5t-61 -115.5t-49 -177t-47.5 -253q14 1 32 1.5t36 0.5q45 0 91 -4.5t84 -11.5z" />
    <glyph glyph-name="Rfraktur" unicode="&#x211c;" horiz-adv-x="1725" 
d="M1364 -25q-34 0 -60.5 17.5t-45 49t-28 75.5t-9.5 97v233q0 81 -22.5 127t-60 69t-86 29t-101.5 6h-14q-26 -12 -53 -23.5t-56 -22.5v-150q0 -54 -19 -112.5t-52 -115t-77.5 -107t-95 -88.5t-104.5 -60.5t-107 -22.5l-149 151l122 121l161 -165q31 19 59 42t49 59.5
t33 91t12 136.5v654q0 53 -3.5 104t-21.5 91t-55 64.5t-104 24.5q-50 0 -99 -22.5t-87.5 -58t-62.5 -78.5t-24 -84q0 -24 19 -50.5t47 -54t61.5 -56.5t61.5 -59t47 -60.5t19 -61.5q0 -26 -10.5 -52.5t-33.5 -57.5t-61 -66.5t-92 -78.5l-41 40q29 27 47 45.5t28 32.5t13.5 26
t3.5 26q0 27 -18 53.5t-45 52t-58 51.5t-58 54t-45 57.5t-18 62.5q0 32 20 78t56 96.5t85 100.5t107 89.5t122 64t129 24.5q55 0 97.5 -20.5t72 -58t46.5 -90t21 -115.5q40 47 88 97.5t94.5 92t88 68t69.5 26.5q34 0 79.5 -17t86 -55.5t69 -100.5t28.5 -152q0 -31 -20.5 -73
t-60.5 -90.5t-99.5 -100.5t-138.5 -102q73 -3 126 -20.5t87 -54t50 -93t16 -137.5v-184q0 -30 2.5 -60t10 -54t20 -39.5t32.5 -15.5q39 0 80 39t99 107l40 -38q-36 -44 -76 -88t-80.5 -79.5t-79.5 -58t-73 -22.5zM1255 1090q0 66 -17 110t-45.5 70.5t-64.5 38t-75 11.5
q-21 -12 -40.5 -26t-43.5 -37t-57.5 -58.5t-83.5 -90.5v-415q221 79 324 178.5t103 218.5z" />
    <glyph glyph-name="uni211D" unicode="&#x211d;" horiz-adv-x="1319" 
d="M1132 1044q0 -134 -62 -229t-176 -143l417 -672h-365l-355 621h-80v-621h-323v1434h483q118 0 205 -26t144 -76t84.5 -122.5t27.5 -165.5zM770 721v613h-259v-613h259zM1027 1044q0 112 -41 177.5t-116 93.5v-559q34 17 62.5 41t49.5 58.5t33 80.5t12 108zM1007 89h141
l-340 553q-25 -7 -55.5 -11.5t-56.5 -6.5zM411 90v1244h-123v-1244h123z" />
    <glyph glyph-name="prescription" unicode="&#x211e;" horiz-adv-x="1327" 
d="M861 317l-61 84q-40 54 -73 93.5t-68.5 65t-76.5 38t-97 12.5h-129v-610h-168v1434h428q93 0 173 -24t138.5 -71.5t92 -119t33.5 -166.5q0 -75 -22.5 -137.5t-64.5 -112t-101 -84.5t-132 -53v-4q60 -26 112.5 -80.5t112.5 -135.5l160 215h167l-244 -328l244 -333h-190
l-150 204l-152 -204h-168zM356 1282v-520h228q63 0 116.5 19t93 54.5t61.5 86.5t22 116q0 116 -74.5 180t-216.5 64h-230z" />
    <glyph glyph-name="uni211F" unicode="&#x211f;" horiz-adv-x="1265" 
d="M408 1793l551 -189l-74 -215q47 -22 85.5 -53.5t65.5 -73.5t42 -94t15 -115q0 -75 -22.5 -137.5t-64.5 -112t-101 -84.5t-132 -53v-4q36 -17 63 -37.5t50.5 -48.5t47 -64t52.5 -82l271 -430h-201l-240 401q-51 84 -96.5 135t-102.5 71l-304 -887h-125l96 280h-96v1434
h468q30 0 59 -2.5t56 -7.5l36 104l-438 152zM356 1282v-530h185l178 521q-42 9 -93 9h-270zM917 1038q0 127 -88 189l-162 -472q55 7 101 30t79 59.5t51.5 85.5t18.5 108zM356 210l140 410h-140v-410z" />
    <glyph glyph-name="uni2120" unicode="&#x2120;" horiz-adv-x="1558" 
d="M1371 772h-108v478h-4l-219 -478h-59l-214 478h-4v-478h-102v662h127l225 -496h4l228 496h126v-662zM112 918q31 -26 78.5 -42t94.5 -16q24 0 46.5 4.5t39 15t26.5 27t10 40.5q0 19 -6 33.5t-21 27.5t-39 26t-60 30q-43 20 -75 39t-53.5 40.5t-32 47.5t-10.5 62
q0 52 21 89t54 59.5t73 33t77 10.5q19 0 42.5 -1.5t46.5 -5t44.5 -9t37.5 -13.5v-108q-14 9 -33 17t-41 14t-45.5 9.5t-46.5 3.5q-52 0 -85 -21t-33 -67q0 -20 7.5 -34t21.5 -25.5t34 -21.5t46 -22q34 -16 67.5 -33.5t60.5 -40.5t43.5 -53.5t16.5 -72.5q0 -45 -17 -81
t-48 -61.5t-74.5 -39t-95.5 -13.5q-49 0 -95 10.5t-77 29.5v112z" />
    <glyph glyph-name="uni2121" unicode="&#x2121;" horiz-adv-x="1583" 
d="M602 564h-209v-564h-111v564h-206v98h526v-98zM1051 0h-365v662h350v-98h-239v-178h220v-99h-220v-189h254v-98zM1507 0h-372v662h111v-564h261v-98z" />
    <glyph glyph-name="trademark" unicode="&#x2122;" horiz-adv-x="1583" 
d="M1396 772h-108v478h-4l-219 -478h-59l-214 478h-4v-478h-102v662h127l225 -496h4l228 496h126v-662zM602 1336h-209v-564h-111v564h-206v98h526v-98z" />
    <glyph glyph-name="uni2123" unicode="&#x2123;" horiz-adv-x="1272" 
d="M1253 1434l-530 -1434h-184l-71 195l-163 -475h-125l223 653l-385 1061h187l283 -812l311 906l-438 152l39 113l551 -189l-399 -1164l50 -143q20 -57 29 -127h4q5 29 12.5 61.5t20.5 67.5l405 1135h180z" />
    <glyph glyph-name="uni2124" unicode="&#x2124;" horiz-adv-x="1167" 
d="M1124 0h-1091v100l759 1234h-706v100h1036v-100l-746 -1234h748v-100zM143 100h122l750 1234h-115z" />
    <glyph glyph-name="uni2125" unicode="&#x2125;" horiz-adv-x="1022" 
d="M46 -236q164 -104 342 -104q86 0 159 24t126 67.5t83 103.5t30 131q0 74 -28.5 132.5t-83.5 99t-135 62t-182 21.5h-81v51l374 466h-550v139h260l276 338h-535v139h775v-51l-350 -426h364v-51l-389 -476q110 -13 194.5 -50t141.5 -93.5t86.5 -131.5t29.5 -165
q0 -102 -43.5 -188t-120 -148.5t-181 -97.5t-226.5 -35q-91 0 -174.5 20t-161.5 62v161z" />
    <glyph glyph-name="Omega" unicode="&#x2126;" horiz-adv-x="1546" 
d="M1450 0h-520v147q346 255 346 633q0 122 -37 220t-103.5 167t-158 106.5t-199.5 37.5q-109 0 -201.5 -36.5t-159.5 -105t-105 -167t-38 -222.5q0 -379 347 -633v-147h-521v147h349q-175 119 -262 277t-87 360q0 156 48.5 281t136.5 212t212 134t275 47q154 0 279.5 -46
t214 -132.5t136.5 -211t48 -282.5q0 -401 -348 -639h348v-147z" />
    <glyph glyph-name="uni2127" unicode="&#x2127;" horiz-adv-x="1546" 
d="M1450 1287h-348q348 -238 348 -639q0 -158 -48 -282.5t-136.5 -211t-214 -132.5t-279.5 -46q-151 0 -275 47t-212 134t-136.5 212t-48.5 281q0 202 87 360t262 277h-349v147h521v-147q-347 -254 -347 -633q0 -124 38 -222.5t105 -167t159.5 -105t201.5 -36.5
q108 0 199.5 37.5t158 106.5t103.5 167t37 220q0 378 -346 633v147h520v-147z" />
    <glyph glyph-name="uni2128" unicode="&#x2128;" horiz-adv-x="1040" 
d="M908 539q0 -87 -29 -161.5t-79.5 -136.5t-118.5 -110.5t-147 -82t-164.5 -52t-170.5 -20.5l-149 151l122 121l186 -187q38 4 82 15.5t88.5 32t85.5 51.5t73 73.5t51 97.5t19 124q0 150 -89 247t-264 121l-135 -98l-38 51q83 56 158 118t141 127t122.5 131t103.5 129h-389
q-70 0 -111.5 -2t-67 -7t-40.5 -13.5t-32 -22.5l-30 23l119 268h62l-40 -93h695v-43q-33 -48 -76.5 -105t-93.5 -116t-103.5 -117t-105.5 -107v-4q86 -12 154 -52t115 -96t71.5 -122.5t24.5 -132.5z" />
    <glyph glyph-name="uni2129" unicode="&#x2129;" horiz-adv-x="587" 
d="M237 -1v754q0 139 -100 139q-42 0 -90 -19v140q64 22 121 22q233 0 233 -276v-760h-164z" />
    <glyph glyph-name="uni212A" unicode="&#x212a;" horiz-adv-x="1188" 
d="M1186 0h-234l-555 655q-15 19 -24 31.5t-13 20.5h-4v-707h-168v1434h168v-674h4q8 11 17 23t20 26l537 625h209l-615 -689z" />
    <glyph glyph-name="uni212B" unicode="&#x212b;" horiz-adv-x="1321" 
d="M1298 0h-186l-152 402h-608l-143 -402h-187l529 1378q-101 53 -101 164q0 44 16 80.5t44.5 63t67.5 41t84 14.5q43 0 80 -14.5t63.5 -40t41.5 -61t15 -77.5q0 -112 -96 -166zM656 1659q-51 0 -82.5 -31.5t-31.5 -79.5q0 -114 114 -114q24 0 45 9t36 24t24 36t9 45
t-9 44.5t-24 35.5t-36 23t-45 8zM905 553l-225 611q-5 15 -11 39t-11 57h-4q-10 -59 -23 -96l-223 -611h497z" />
    <glyph glyph-name="uni212C" unicode="&#x212c;" horiz-adv-x="1646" 
d="M1560 1116q0 -71 -30.5 -127t-79 -97.5t-108.5 -69t-119 -41.5q67 -15 124.5 -45.5t100 -75t67 -104t24.5 -133.5q0 -81 -33 -161t-95 -144t-152.5 -103.5t-204.5 -39.5q-56 0 -96.5 14.5t-67 38.5t-39.5 56.5t-13 68.5t11.5 67.5t33 55.5t51.5 37.5t68 13.5
q26 0 45 -6.5t30 -14.5v-28q-10 2 -21.5 2.5t-19.5 0.5q-66 0 -107 -33.5t-41 -95.5t43 -97t128 -35q68 0 123.5 34t95.5 91.5t61.5 134t21.5 162.5q0 71 -12 123.5t-37 90t-63.5 62.5t-90.5 42q-51 -8 -106 -12t-104 -4q-20 0 -38 1.5t-30 3.5q-26 -158 -62 -277
t-79.5 -205t-92 -142.5t-100 -89.5t-104 -46.5t-103.5 -13.5q-77 0 -131.5 25.5t-89 65t-51 89t-16.5 97.5q0 35 8 66.5t23 55t37 37t50 13.5q27 0 48 -16t21 -50q0 -26 -14 -40t-30.5 -29t-30 -37.5t-13.5 -66.5q0 -35 14 -65t40 -52.5t62.5 -35t80.5 -12.5q64 0 110 25
t79 72.5t57 116.5t45 157.5t41.5 196t47.5 230.5q25 115 56 206.5t72.5 162.5t95 123t122.5 89q-40 8 -80 11t-82 3q-155 0 -279.5 -33.5t-211.5 -93t-134 -141t-47 -176.5q0 -54 16 -94.5t43 -68t63.5 -41t78.5 -13.5q22 0 40.5 2.5t36.5 7.5t36 13t38 19l21 -39
q-51 -35 -109.5 -53t-118.5 -18q-53 0 -101 15.5t-85 47.5t-59 81.5t-22 117.5q0 95 56 187t162 164t257.5 116.5t342.5 44.5q142 0 257.5 -21.5t197 -64.5t126 -107t44.5 -149zM1138 803q57 7 104 33t80 65t51 87t18 101q0 117 -67 194t-197 103q-33 -17 -58.5 -38.5
t-45.5 -51.5t-36.5 -71.5t-31 -99t-29 -133.5t-31.5 -175q14 1 32 1.5t36 0.5q45 0 91 -4.5t84 -11.5z" />
    <glyph glyph-name="uni212D" unicode="&#x212d;" horiz-adv-x="1304" 
d="M867 1458q33 0 68 -21.5t66 -47.5t55.5 -47.5t37.5 -21.5q19 0 45 21.5t67 71.5l17 21l37 -33q-29 -39 -63 -78.5t-68.5 -71.5t-66 -52t-54.5 -20t-53 22t-63 53t-68 64t-68 54q-24 -11 -49 -38.5t-45.5 -66.5t-34 -86t-13.5 -96q0 -40 28 -85.5t69.5 -92.5t90.5 -93.5
t90.5 -89.5t69.5 -80.5t28 -65.5q0 -40 -22 -79.5t-53.5 -74.5t-65 -63.5t-56.5 -46.5l-41 40q29 27 47 45.5t27.5 32.5t13 26t3.5 26q0 27 -25.5 62t-63.5 74t-82 81t-82 84t-63.5 82.5t-25.5 77.5q0 54 13.5 110.5t35.5 109t48 97t52 76.5q-23 -11 -58.5 -30.5t-76.5 -51
t-82 -76.5t-74 -108.5t-54 -146.5t-21 -189q0 -115 22 -205t60.5 -157.5t90.5 -114.5t111.5 -76.5t124.5 -42.5t129 -13q48 0 93 6t85.5 16t75 23t59.5 28l65 82l41 -34q-24 -33 -48.5 -65t-48 -60t-45 -51t-38.5 -39q-30 -14 -59.5 -24.5t-62.5 -17.5t-70 -11t-82 -4
q-156 0 -280.5 50t-211.5 140.5t-134 217.5t-47 280q0 119 38.5 224t101.5 193.5t143.5 158t164.5 118t163.5 74.5t141.5 26z" />
    <glyph glyph-name="estimated" unicode="&#x212e;" horiz-adv-x="1229" 
d="M315 530l2 -370q121 -121 295 -121q256 0 396 246l71 -43q-51 -76 -103.5 -129t-109 -86t-118.5 -47.5t-134 -14.5q-119 0 -216 43.5t-166.5 119.5t-107.5 179t-38 223q0 128 40 232.5t110.5 178.5t166 114.5t207.5 40.5q106 0 200 -35.5t166 -106.5t116.5 -177
t52.5 -247h-830zM911 604v297q-129 123 -303 123q-173 0 -293 -123v-297h596z" />
    <glyph glyph-name="uni212F" unicode="&#x212f;" horiz-adv-x="1299" 
d="M952 809q0 -75 -39.5 -133t-107 -97.5t-157.5 -60.5t-191 -21q-35 0 -66 2.5t-58 5.5q0 -3 -0.5 -11.5t-1 -18.5t-0.5 -19v-12q0 -82 19.5 -145t54.5 -105.5t84 -64.5t108 -22q69 0 128.5 21.5t116.5 64t114.5 106t121.5 147.5q31 40 61 82t59 90l44 -34
q-100 -145 -188 -258t-173 -191t-171.5 -118.5t-183.5 -40.5q-80 0 -145.5 32t-112 89.5t-71.5 138t-25 177.5q0 29 2 52t4 45l-3 1q-23 -33 -57.5 -69t-67.5 -65v55q28 32 58 72q26 34 56.5 80.5t59.5 103.5q87 171 197 266t244 95q79 0 134 -22.5t89 -57.5t49 -77.5
t15 -82.5zM822 827q0 36 -8.5 68.5t-27 56.5t-48.5 38t-73 14q-57 0 -109.5 -27t-96 -83t-75 -141.5t-46.5 -202.5q20 -2 46 -5t58 -3q89 0 159.5 17.5t119.5 52.5t75 89t26 126z" />
    <glyph glyph-name="uni2130" unicode="&#x2130;" horiz-adv-x="1128" 
d="M698 1459q87 0 151 -24.5t106.5 -63t63 -86.5t20.5 -94q0 -37 -11.5 -69t-34 -55.5t-56 -37t-77.5 -13.5q-31 0 -58 9t-47.5 26.5t-32.5 44t-12 61.5q0 93 97 142l18 -25q-28 -20 -42 -40.5t-14 -56.5q0 -43 24 -64t58 -21t60 27.5t26 75.5q0 42 -15 81.5t-45 70t-76 49
t-109 18.5q-67 0 -120 -27t-89.5 -73.5t-56 -108t-19.5 -131.5q0 -40 7 -82t22 -81t39.5 -72t59.5 -55q10 1 23 1.5t26.5 1t26.5 1t22 0.5q57 0 103 -4.5t81 -11.5l-10 -52q-33 -14 -95 -14q-54 0 -101 8.5t-89 25.5q-72 -15 -122.5 -51t-82 -86t-45.5 -109.5t-14 -120.5
q0 -91 32.5 -156t84 -106.5t115.5 -61t128 -19.5t116.5 15.5t90 43t58.5 65t21 81.5q0 34 -13 56t-28.5 39.5t-28.5 35.5t-13 45q0 35 19.5 54.5t54.5 19.5q19 0 37 -11t31.5 -31t21.5 -48t8 -63q0 -91 -33.5 -158t-92 -111.5t-139 -66t-173.5 -21.5t-177.5 22.5t-148.5 70
t-101.5 121t-37.5 175.5q0 94 31.5 163t83.5 118t120 78.5t140 43.5q-50 28 -87.5 66t-63 82.5t-38.5 92.5t-13 96q0 67 27 131t81.5 113.5t136 80t190.5 30.5z" />
    <glyph glyph-name="uni2131" unicode="&#x2131;" horiz-adv-x="1600" 
d="M1559 1434q0 38 -27.5 53t-72.5 15t-85 -12.5t-82 -32.5l-13 29q18 10 38.5 19.5t44 17.5t50.5 13t60 5q70 0 110.5 -33t40.5 -87q0 -29 -10 -56t-31 -48t-53.5 -33.5t-77.5 -12.5q-42 0 -85 8.5t-87.5 21t-91 28.5t-97.5 31q-41 -35 -70 -87.5t-51.5 -126t-41.5 -168.5
t-39 -214q56 9 144 15t189 6q16 0 34.5 -1.5t36 -3t32.5 -3l25 -2.5v-45q-17 -9 -46 -18t-78 -9q-48 0 -81 3.5t-62.5 7.5t-60.5 7.5t-75 3.5q-43 0 -67 -6q-27 -159 -62.5 -276t-78 -200t-90.5 -135t-98.5 -81.5t-102.5 -40.5t-103 -11q-77 0 -131.5 25.5t-89 65t-51 89
t-16.5 97.5q0 35 8 66.5t23 55t37 37t50 13.5q27 0 48 -16t21 -50q0 -26 -14 -40t-30.5 -29t-30 -37.5t-13.5 -66.5q0 -35 14 -65t40 -52.5t62.5 -35t80.5 -12.5q64 0 110 25t79 72.5t57 116.5t45 157.5t41.5 196t47.5 230.5q21 98 48 181.5t63.5 153t84 125t108.5 97.5
q-58 15 -121.5 25t-135.5 10q-120 0 -218.5 -31.5t-169 -88.5t-109 -136.5t-38.5 -174.5q0 -54 16 -96t43 -71.5t63.5 -44.5t78.5 -15q22 0 40.5 2.5t36.5 7.5t36 13t38 19l21 -39q-51 -35 -109.5 -53t-118.5 -18q-53 0 -101 17t-85 51t-59 85t-22 119q0 95 43 185
t132.5 160.5t225.5 113.5t322 43q113 0 204 -14.5t165 -31.5t134.5 -31.5t113.5 -14.5q49 0 73 18.5t24 49.5z" />
    <glyph glyph-name="uni2132" unicode="&#x2132;" horiz-adv-x="999" 
d="M83 152h560v496h-518v151h518v635h168v-1434h-728v152z" />
    <glyph glyph-name="uni2133" unicode="&#x2133;" horiz-adv-x="2219" 
d="M135 164q0 -33 13.5 -59.5t38 -45t58.5 -29t75 -10.5q100 0 169.5 43.5t123.5 135t101 233t102 337.5q42 149 80 266.5t80 204.5t90.5 142.5t110.5 80.5q24 0 38.5 -15t14.5 -38q-57 -13 -82.5 -49.5t-25.5 -105.5q0 -54 10 -121t25 -142t32.5 -155t32.5 -160.5t25 -159
t10 -150.5h4q74 184 152.5 331.5t157.5 262.5t154.5 199.5t142.5 143t123.5 94t96.5 52.5q17 0 32.5 -12t15.5 -36q0 -22 -12.5 -31.5t-30.5 -16.5t-38 -15.5t-36 -27.5q-28 -35 -54 -97.5t-49.5 -143.5t-43 -175.5t-33 -194t-21.5 -199t-8 -189.5q0 -126 25 -187t86 -61
q33 0 58.5 15t46 39t37 53t33.5 57l36 -19q-36 -75 -72 -120.5t-71.5 -71t-70.5 -34t-69 -8.5q-55 0 -93.5 20t-63 57t-35.5 88.5t-11 113.5q0 88 11.5 180.5t31 184t45.5 180t54.5 169.5t58.5 151.5t57 126.5l-4 2q-51 -47 -100 -98.5t-99 -114.5t-101 -140.5t-105 -175.5
t-111 -220.5t-120 -274.5q-51 -125 -81.5 -187t-50.5 -62q-35 0 -47 25q0 11 2 21.5t6.5 25t12.5 34.5l20 50q0 100 -7.5 180.5t-18.5 150.5t-24 133.5t-24 129.5t-18.5 138.5t-7.5 160.5q0 73 7 127t17 100h-4q-20 -41 -37.5 -83t-34.5 -94t-35 -118.5t-40 -154.5
q-43 -175 -85.5 -304t-87 -221t-91 -150.5t-97 -92t-107 -46t-119.5 -12.5q-79 0 -134.5 24t-90.5 61.5t-51 84.5t-16 94q0 36 9 69.5t26.5 59t41.5 41t54 15.5q27 0 48 -16t21 -50q0 -26 -13.5 -43t-29 -36t-29 -45.5t-13.5 -69.5z" />
    <glyph glyph-name="uni2134" unicode="&#x2134;" horiz-adv-x="1295" 
d="M645 1049q88 0 150.5 -33.5t102.5 -90t58.5 -130.5t18.5 -155q0 -34 -3 -72.5t-8.5 -77.5t-13.5 -74.5t-18 -63.5q40 12 79.5 38.5t75.5 63t68 81t58 91.5l43 -26q-26 -46 -60.5 -93t-76.5 -88t-89.5 -73.5t-99.5 -48.5l-19 -6q-30 -72 -71.5 -130.5t-95.5 -100
t-120 -63.5t-146 -22q-92 0 -157.5 37t-107 99t-61 143.5t-19.5 171.5q0 19 1.5 41.5t3.5 42.5l-7 1q-14 -20 -27 -37t-27 -32.5t-30 -31t-37 -33.5v54q27 31 49 60.5t42 61t39.5 65.5t40.5 75q94 181 207 268.5t257 87.5zM829 333q20 70 30.5 144.5t10.5 157.5
q0 75 -14 142t-42.5 117.5t-72.5 80t-104 29.5q-88 0 -153 -48.5t-108 -127t-64 -178t-21 -201.5q0 -98 19.5 -174.5t55 -128.5t85.5 -79t110 -27q41 0 75.5 12.5t62 32t48 44.5t33.5 49q-29 1 -49.5 22.5t-20.5 50.5q0 35 28.5 55.5t90.5 26.5z" />
    <glyph glyph-name="aleph" unicode="&#x2135;" horiz-adv-x="1441" 
d="M1340 0h-205l-611 689q-69 -29 -111 -62t-66 -80.5t-35 -114t-17 -162.5l-18 -270h-167l20 270q6 94 20.5 172.5t48.5 142t91 114t149 88.5l-324 360h212l474 -537q105 27 166 64.5t93.5 86.5t45 110t20.5 136l15 140h167l-13 -133q-11 -110 -39.5 -193t-77.5 -144.5
t-119.5 -103.5t-165.5 -69z" />
    <glyph glyph-name="uni2136" unicode="&#x2136;" horiz-adv-x="1092" 
d="M895 156h136v-156h-941v156h648v469q0 110 -18 181t-57.5 112t-102 57t-151.5 16h-272v156h272q147 0 241 -29.5t148.5 -92t75.5 -160.5t21 -234v-475z" />
    <glyph glyph-name="uni2137" unicode="&#x2137;" horiz-adv-x="763" 
d="M724 0h-164l-118 363q-12 -43 -25 -76.5t-31 -62t-42.5 -53t-58.5 -49.5t-79 -51.5t-105 -59.5l-64 -35v183l55 31q63 36 110 65.5t80.5 58t55.5 58.5t34.5 67t17.5 83t5 107v143q0 45 -1.5 76.5t-8 52t-19.5 32t-35 17.5l-211 54v172l288 -78q48 -13 76.5 -37t43.5 -60
t20 -85.5t5 -112.5v-213q0 -52 11.5 -100t26.5 -96z" />
    <glyph glyph-name="uni2138" unicode="&#x2138;" horiz-adv-x="1001" 
d="M804 991v-991h-157v991h-629v156h941v-156h-155z" />
    <glyph glyph-name="uni2139" unicode="&#x2139;" horiz-adv-x="1691" 
d="M847 1024q-27 0 -49.5 8.5t-38.5 23.5t-25 35t-9 43q0 48 34 77.5t88 29.5t87.5 -29.5t33.5 -77.5t-33.5 -79t-87.5 -31zM951 187h-211v730h211v-730z" />
    <glyph glyph-name="uni213A" unicode="&#x213a;" horiz-adv-x="1987" 
d="M1939 1278q0 -95 -28.5 -171.5t-77.5 -143t-115 -129t-141 -129.5q-17 -156 -80 -279t-161.5 -208t-227.5 -130t-277 -45q-149 0 -282.5 44.5t-234.5 130.5t-160.5 212t-59.5 290q0 104 27 195t75 166.5t115.5 134.5t148.5 99.5t173 62t190 21.5q133 0 250.5 -29
t212.5 -90.5t163 -156.5t103 -226q59 56 102.5 102t72 90.5t42.5 92t14 106.5q0 34 -6.5 74.5t-17.5 71.5h162q9 -35 13.5 -78t4.5 -78zM270 727q0 -125 41 -223.5t115.5 -167t179 -105t231.5 -36.5t231 38t178 108t115 168.5t41 219.5q0 118 -39.5 213.5t-113 163
t-177.5 104.5t-233 37t-234 -32.5t-179.5 -98t-115 -163t-40.5 -226.5z" />
    <glyph glyph-name="uni213B" unicode="&#x213b;" horiz-adv-x="2293" 
d="M1481 0h-184l-77 401h-284l-73 -401h-174l293 1434h199zM2237 0h-189l-152 448q-8 22 -14 55.5t-9 69.5h-4q-1 -26 -9 -62t-16 -63l-143 -448h-191l274 717l-261 717h196l131 -420q11 -36 16.5 -72t10.5 -69h4q6 49 13 83t15 58l135 420h176l-258 -711zM686 1282h-330
v-496h305v-151h-305v-635h-168v1434h498v-152zM1114 1024q-11 70 -18.5 125.5t-11.5 111.5h-5q-6 -54 -15 -110t-20 -127l-77 -471h224z" />
    <glyph glyph-name="uni213D" unicode="&#x213d;" horiz-adv-x="1184" 
d="M958 812q0 59 -7 110t-23 102h119q11 -46 17 -97.5t6 -109.5q0 -110 -21.5 -219t-62 -210.5t-98 -193.5t-129.5 -167q-4 -65 -8.5 -133.5t-9.5 -134.5t-10 -127.5t-9 -112.5h-322q16 142 28.5 259t16.5 222q-72 255 -184 508t-259 516h356q59 -111 108.5 -213.5
t94 -207.5t84.5 -217t81 -241h6q51 63 92.5 140t71 162.5t46 178t16.5 186.5zM544 15q-2 -56 -6 -111t-8.5 -106.5t-9.5 -97t-8 -81.5h120q10 93 17 194t11 213q-69 252 -162.5 475.5t-193.5 422.5h-141q114 -197 206 -424.5t175 -484.5z" />
    <glyph glyph-name="uni213E" unicode="&#x213e;" horiz-adv-x="1099" 
d="M1015 1334h-504v-1334h-323v1434h827v-100zM411 90v1244h-123v-1244h123z" />
    <glyph glyph-name="uni213F" unicode="&#x213f;" horiz-adv-x="1686" 
d="M1498 -471h-323v1805h-664v-1805h-323v1905h1310v-1905zM411 -381v1715h-123v-1715h123zM1398 -381v1715h-123v-1715h123z" />
    <glyph glyph-name="uni2140" unicode="&#x2140;" horiz-adv-x="1316" 
d="M1270 -469h-1217v100l639 814l-614 889v100h1159v-100h-791l504 -727l-601 -763h921v-313zM1170 -368v112h-904l-88 -112h992zM759 522l71 88l-502 724h-131z" />
    <glyph glyph-name="uni2141" unicode="&#x2141;" horiz-adv-x="1405" 
d="M145 1335q216 123 480 123q153 0 279 -52t216.5 -147t140.5 -228.5t50 -295.5q0 -167 -56.5 -307t-156.5 -240.5t-236 -156.5t-295 -56q-117 0 -214.5 18.5t-178.5 57.5v186q175 -111 412 -111q121 0 222 44.5t173.5 123.5t113 188.5t40.5 239.5q0 137 -37.5 245.5
t-106.5 183.5t-167 115t-220 40q-167 0 -291 -68v-401h314v-152h-482v650z" />
    <glyph glyph-name="uni2142" unicode="&#x2142;" horiz-adv-x="965" 
d="M33 1434h744v-1434h-168v1282h-576v152z" />
    <glyph glyph-name="uni2143" unicode="&#x2143;" horiz-adv-x="965" 
d="M33 152h576v1282h168v-1434h-744v152z" />
    <glyph glyph-name="uni2144" unicode="&#x2144;" horiz-adv-x="1133" 
d="M13 0l473 904v530h168v-526l461 -908h-191l-321 648q-4 6 -12.5 27.5t-22.5 60.5h-2q-5 -17 -15 -39t-24 -49l-336 -648h-178z" />
    <glyph glyph-name="uni2145" unicode="&#x2145;" horiz-adv-x="1436" 
d="M325 1434h481q123 0 225.5 -33t175.5 -97t113.5 -158.5t40.5 -217.5q0 -212 -63.5 -383.5t-178.5 -292.5t-276 -186.5t-355 -65.5h-468zM512 100q103 0 188 21.5t157 59.5l228 1079q-60 40 -134.5 57t-152.5 17h-171l-263 -1234h148zM527 1334h-123l-263 -1234h123z
M1242 923q0 84 -19.5 147t-53.5 110l-195 -918q70 61 121 139.5t83.5 165t48 178t15.5 178.5z" />
    <glyph glyph-name="uni2146" unicode="&#x2146;" horiz-adv-x="1315" 
d="M1000 0h-291q0 14 1.5 36.5t3.5 47.5t4.5 48.5t4.5 39.5h-4q-29 -44 -63 -80t-74 -62t-85.5 -40.5t-96.5 -14.5q-74 0 -133 28t-100 79t-63 123.5t-22 161.5q0 141 45.5 265.5t131 217t209 146t280.5 53.5q40 0 81.5 -4t67.5 -9l103 480h315zM879 949h-336l-211 -862
q17 -10 36 -13t44 -3q67 0 127 35t108.5 93t83 133.5t51.5 155.5zM798 100h120l279 1316h-120zM182 389q0 -162 66 -240l185 743q-34 -21 -77.5 -59.5t-82 -99t-65 -145.5t-26.5 -199z" />
    <glyph glyph-name="uni2147" unicode="&#x2147;" horiz-adv-x="1202" 
d="M731 1049q92 0 160 -26t112.5 -72t66 -109t21.5 -137q0 -64 -15 -136l-22 -100h-629l-74 -352q42 -24 92.5 -34.5t106.5 -10.5q99 0 195.5 27t184.5 74l-24 -114q-80 -38 -176.5 -61t-217.5 -23q-98 0 -176 29.5t-132 84t-83 131.5t-29 172q0 97 23 183.5t65 159.5
t100.5 131.5t129.5 99t152.5 62t168.5 21.5zM772 569l79 375h-325l-79 -375h325zM195 399q0 -67 17 -123.5t52 -97.5l149 696q-46 -34 -86 -83.5t-69 -111t-46 -132.5t-17 -148zM976 569q10 33 15.5 66.5t5.5 73.5q0 51 -13.5 98t-45.5 82l-66 -320h104z" />
    <glyph glyph-name="uni2148" unicode="&#x2148;" horiz-adv-x="650" 
d="M333 0h-315l217 1024h316zM254 100l175 824h-116l-175 -824h116zM444 1185q-31 0 -62 10.5t-55.5 30t-39.5 47.5t-15 64q0 39 14.5 70.5t40 53.5t61 34t77.5 12q35 0 66.5 -11t55.5 -31t38 -48.5t14 -62.5q0 -43 -17 -74.5t-44.5 -52.5t-62.5 -31.5t-71 -10.5zM457 1417
q-16 0 -31.5 -4.5t-27.5 -14t-19 -24t-7 -33.5q0 -29 21.5 -47.5t58.5 -18.5q42 0 64.5 21t22.5 56q0 31 -24 48t-58 17z" />
    <glyph glyph-name="uni2149" unicode="&#x2149;" horiz-adv-x="650" 
d="M-320 -340q29 -12 58.5 -20t64.5 -8q27 0 53.5 8t49 27t40 51.5t28.5 80.5l262 1225h316l-228 -1064q-9 -44 -26 -93.5t-44 -98.5t-65.5 -94t-91.5 -79.5t-121 -55t-154 -20.5q-42 0 -82.5 6.5t-82.5 25.5zM50 -324q31 21 57.5 47t49 61.5t40.5 81.5t31 108l202 950h-116
zM445 1185q-31 0 -62 10.5t-55.5 30t-39.5 47.5t-15 64q0 39 14.5 70.5t40 53.5t61 34t77.5 12q35 0 66.5 -11t55.5 -31t38 -48.5t14 -62.5q0 -43 -17 -74.5t-44.5 -52.5t-62.5 -31.5t-71 -10.5zM458 1417q-16 0 -31.5 -4.5t-27.5 -14t-19 -24t-7 -33.5q0 -29 21.5 -47.5
t58.5 -18.5q42 0 64.5 21t22.5 56q0 31 -24 48t-58 17z" />
    <glyph glyph-name="uni214A" unicode="&#x214a;" horiz-adv-x="1350" 
d="M1219 0h-676v1207h-187v-827h-168v979h355v157h168v-157q137 0 233.5 -28.5t157 -81t88.5 -127.5t28 -169q0 -93 -31.5 -168.5t-91.5 -129t-146.5 -83t-195.5 -29.5h-42v-391h508v-152zM1046 951q0 72 -23 121t-66.5 79t-105.5 43t-140 13v-513h42q59 0 112.5 13t93.5 43
t63.5 79.5t23.5 121.5z" />
    <glyph glyph-name="uni214B" unicode="&#x214b;" horiz-adv-x="1638" 
d="M192 1456q57 0 101 -15.5t81.5 -44t72 -69.5t71.5 -93q40 43 92 83t116 71t140.5 49.5t165.5 18.5q108 0 198 -27t154 -79.5t99.5 -129t35.5 -176.5q0 -154 -87 -262.5t-247 -177.5q31 -23 60.5 -52t53 -66t38 -82.5t14.5 -100.5q0 -78 -28 -139t-77.5 -103t-117.5 -64
t-147 -22q-78 0 -142.5 21.5t-111.5 61t-73 96t-26 126.5q0 119 68.5 198.5t206.5 135.5q-71 27 -127 66t-103 87t-88 103t-82 114q-80 -112 -120.5 -248t-40.5 -286q0 -38 4 -71.5t12 -65.5h-160q-8 32 -9.5 62t-2.5 71q0 90 19 182t51 179t74 165.5t89 141.5
q-34 48 -63 84t-58.5 59.5t-61.5 35t-71 11.5q-30 0 -61 -8t-63 -21v154q35 12 74.5 19.5t76.5 7.5zM1032 1314q-77 0 -140.5 -16.5t-117 -44.5t-97.5 -64t-81 -75q60 -95 111.5 -163.5t104.5 -118t113 -84.5t138 -63q63 25 115.5 55.5t91 72t60 96.5t21.5 129q0 68 -25 120
t-68 86.5t-101 52t-125 17.5zM782 292q0 -49 18.5 -84.5t47 -58t64 -33t69.5 -10.5q49 0 89 14t68 39.5t43 62t15 81.5q0 40 -12.5 76.5t-35 67.5t-52.5 55t-64 40q-125 -43 -187.5 -101t-62.5 -149z" />
    <glyph glyph-name="arrowleft" unicode="&#x2190;" horiz-adv-x="1767" 
d="M1536 530h-1190l123 -118v-148l-319 332v4l319 332v-148l-125 -120h1192v-134z" />
    <glyph glyph-name="arrowup" unicode="&#x2191;" horiz-adv-x="967" 
d="M416 -12v1188l-119 -121h-147l331 319h4l332 -319h-147l-121 123v-1190h-133z" />
    <glyph glyph-name="arrowright" unicode="&#x2192;" horiz-adv-x="1767" 
d="M231 664h1190l-123 120v148l320 -332v-4l-320 -332v148l121 118h-1188v134z" />
    <glyph glyph-name="arrowdown" unicode="&#x2193;" horiz-adv-x="967" 
d="M549 1376v-1192l121 125h147l-332 -319h-4l-331 319h147l119 -123v1190h133z" />
    <glyph glyph-name="arrowboth" unicode="&#x2194;" horiz-adv-x="1765" 
d="M1296 412l121 118h-1071l123 -118v-148l-319 332v4l319 332v-148l-125 -120h1075l-123 120v148l320 -332v-4l-320 -332v148z" />
    <glyph glyph-name="arrowupdn" unicode="&#x2195;" horiz-adv-x="967" 
d="M297 184l119 -123v1072l-119 -121h-147l331 319h4l332 -319h-147l-121 123v-1076l121 125h147l-332 -319h-4l-331 319h147z" />
    <glyph glyph-name="uni2196" unicode="&#x2196;" horiz-adv-x="1501" 
d="M1176 80l-842 840l2 -172l-105 -105l9 461l4 4l461 8l-105 -104h-170l840 -838z" />
    <glyph glyph-name="uni2197" unicode="&#x2197;" horiz-adv-x="1499" 
d="M231 174l838 838h-168l-104 104l460 -8l5 -4l8 -461l-105 105v172l-839 -840z" />
    <glyph glyph-name="uni2198" unicode="&#x2198;" horiz-adv-x="1501" 
d="M326 1116l839 -842v175l105 104l-8 -461l-5 -4l-460 -8l104 104l168 -2l-838 840z" />
    <glyph glyph-name="uni2199" unicode="&#x2199;" horiz-adv-x="1501" 
d="M1270 1022l-840 -840l170 2l105 -104l-461 8l-4 4l-9 461l105 -104l-2 -175l842 842z" />
    <glyph glyph-name="uni219A" unicode="&#x219a;" horiz-adv-x="1767" 
d="M948 530h-602l123 -118v-148l-319 332v4l319 332v-148l-125 -120h676l143 268h144l-144 -268h373v-134h-444l-142 -266h-143z" />
    <glyph glyph-name="uni219B" unicode="&#x219b;" horiz-adv-x="1767" 
d="M236 664h417l144 268h143l-143 -268h628l-122 120v148l319 -332v-4l-319 -332v148l120 118h-698l-141 -266h-144l142 266h-346v134z" />
    <glyph glyph-name="uni219C" unicode="&#x219c;" horiz-adv-x="1808" 
d="M969 545q-52 -51 -92.5 -83t-74.5 -50.5t-64 -25.5t-60 -7t-56.5 7.5t-58 27.5t-71.5 55t-97 90l-61 59l2 -174l-105 -104l9 461l4 4l461 8l-105 -104h-170l39 -37l74.5 -74.5t54.5 -49.5t43.5 -27.5t40.5 -8.5t41.5 7.5t43 23.5t50.5 41.5t64 60.5q48 45 85.5 74.5
t69 46t59 23t56.5 6.5q30 0 56.5 -7.5t58 -27.5t71.5 -55.5t97 -90.5l143 -141l-94 -94l-123 123q-44 43 -74 73.5t-53 50t-42.5 28t-41.5 8.5q-21 0 -39.5 -7t-39.5 -21t-45.5 -36t-55.5 -53z" />
    <glyph glyph-name="uni219D" unicode="&#x219d;" horiz-adv-x="1808" 
d="M840 545q-32 31 -56 53t-45 36t-40 21t-40 7q-22 0 -41.5 -8.5t-42.5 -28t-53 -50t-73 -73.5l-123 -123l-95 94l144 141q57 55 97 90.5t71 55.5t57.5 27.5t56.5 7.5q28 0 56.5 -6.5t60 -23t69 -46t85.5 -74.5q36 -35 63.5 -60.5t50 -41.5t43 -23.5t41.5 -7.5
q22 0 41.5 8.5t43 27.5t54 49.5l74.5 74.5l37 37h-168l-104 104l461 -8l4 -4l8 -461l-104 104v174l-60 -59q-57 -55 -97 -90t-71.5 -55t-58 -27.5t-56.5 -7.5t-59.5 7t-63.5 25.5t-75 50.5t-92 83z" />
    <glyph glyph-name="uni219E" unicode="&#x219e;" horiz-adv-x="1767" 
d="M1536 530h-895l123 -118v-148l-256 266h-162l123 -118v-148l-319 332v4l319 332v-148l-125 -120h162l258 268v-148l-125 -120h897v-134z" />
    <glyph glyph-name="uni219F" unicode="&#x219f;" horiz-adv-x="967" 
d="M416 -12v852l-119 -121h-147l266 256v201l-119 -121h-147l331 319h4l332 -319h-147l-121 123v-201l268 -258h-147l-121 123v-854h-133z" />
    <glyph glyph-name="uni21A0" unicode="&#x21a0;" horiz-adv-x="1767" 
d="M231 664h895l-122 120v148l258 -268h159l-123 120v148l320 -332v-4l-320 -332v148l121 118h-159l-256 -266v148l120 118h-893v134z" />
    <glyph glyph-name="uni21A1" unicode="&#x21a1;" horiz-adv-x="967" 
d="M549 1376v-856l121 125h147l-268 -258v-203l121 125h147l-332 -319h-4l-331 319h147l119 -123v203l-266 256h147l119 -123v854h133z" />
    <glyph glyph-name="uni21A2" unicode="&#x21a2;" horiz-adv-x="1767" 
d="M1219 596l315 -332h-148l-256 266h-784l123 -118v-148l-319 332v4l319 332v-148l-125 -120h784l258 268h150l-317 -332v-4z" />
    <glyph glyph-name="uni21A3" unicode="&#x21a3;" horiz-adv-x="1767" 
d="M549 600l-318 332h150l258 -268h782l-123 120v148l320 -332v-4l-320 -332v148l121 118h-782l-256 -266h-148l316 332v4z" />
    <glyph glyph-name="uni21A4" unicode="&#x21a4;" horiz-adv-x="1767" 
d="M1403 264v266h-1057l123 -118v-148l-319 332v4l319 332v-148l-125 -120h1059v268h133v-668h-133z" />
    <glyph glyph-name="uni21A5" unicode="&#x21a5;" horiz-adv-x="967" 
d="M150 121h266v1055l-119 -121h-147l331 319h4l332 -319h-147l-121 123v-1057h268v-133h-667v133z" />
    <glyph glyph-name="uni21A6" unicode="&#x21a6;" horiz-adv-x="1767" 
d="M231 264v668h134v-268h1056l-123 120v148l320 -332v-4l-320 -332v148l121 118h-1054v-266h-134z" />
    <glyph glyph-name="uni21A7" unicode="&#x21a7;" horiz-adv-x="967" 
d="M150 1376h667v-133h-268v-1059l121 125h147l-332 -319h-4l-331 319h147l119 -123v1057h-266v133z" />
    <glyph glyph-name="arrowupdnbse" unicode="&#x21a8;" horiz-adv-x="967" 
d="M150 121h331l-331 319h147l119 -123v1072l-119 -121h-147l331 319h4l332 -319h-147l-121 123v-1076l121 125h147l-332 -319h332v-133h-667v133z" />
    <glyph glyph-name="uni21A9" unicode="&#x21a9;" horiz-adv-x="1767" 
d="M1536 803q0 -58 -17.5 -108t-52 -86.5t-86.5 -57.5t-120 -21h-914l123 -118v-148l-319 332v4l319 332v-148l-125 -120h907q75 0 113.5 35t38.5 104q0 68 -37.5 100.5t-105.5 32.5h-189v133h189q69 0 120.5 -19.5t86 -54.5t52 -84t17.5 -108z" />
    <glyph glyph-name="uni21AA" unicode="&#x21aa;" horiz-adv-x="1767" 
d="M231 803q0 59 20 108t58 84t92.5 54.5t124.5 19.5h170v-133h-182q-65 0 -107 -34t-42 -99q0 -66 42.5 -102.5t108.5 -36.5h905l-123 120v148l320 -332v-4l-320 -332v148l121 118h-891q-71 0 -126 21t-93 57.5t-58 86.5t-20 108z" />
    <glyph glyph-name="uni21AB" unicode="&#x21ab;" horiz-adv-x="1767" 
d="M975 530h-629l123 -118v-148l-319 332v4l319 332v-148l-125 -120h631v118q0 70 21 123.5t58.5 90t90 55t115.5 18.5q68 0 120 -19.5t86.5 -54.5t52 -84t17.5 -108q0 -58 -17.5 -108t-52 -86.5t-86.5 -57.5t-120 -21h-152v-266h-133v266zM1108 664h143q78 0 115 36.5
t37 102.5q0 65 -36 99t-107 34q-73 0 -112.5 -37t-39.5 -119v-116z" />
    <glyph glyph-name="uni21AC" unicode="&#x21ac;" horiz-adv-x="1767" 
d="M793 664h628l-123 120v148l320 -332v-4l-320 -332v148l121 118h-626v-266h-134v266h-151q-68 0 -120 21t-87 57.5t-52.5 86.5t-17.5 108q0 59 17.5 108t52.5 84t87 54.5t120 19.5q63 0 115.5 -18.5t90 -55t58.5 -90t21 -123.5v-118zM365 803q0 -66 37 -102.5t114 -36.5
h143v116q0 82 -39.5 119t-111.5 37q-71 0 -107 -34t-36 -99z" />
    <glyph glyph-name="uni21AD" unicode="&#x21ad;" horiz-adv-x="1765" 
d="M346 530l123 -118v-148l-319 332v4l319 332v-148l-125 -120h191q21 -44 35.5 -73t25.5 -46.5t21 -25t22 -7.5q11 0 20.5 7t20.5 22.5t24.5 42t32.5 65.5q22 45 40 73.5t34.5 44.5t33 22t36.5 6q22 0 39.5 -6.5t34 -23t34 -46t39.5 -74.5q21 -41 34.5 -67t24 -40.5
t19.5 -20t20 -5.5q22 0 45 36.5t60 115.5h188l-123 120v148l320 -332v-4l-320 -332v148l121 118h-141q-21 -45 -41.5 -74t-39 -46.5t-36 -24t-33.5 -6.5q-23 0 -43 7t-39.5 26t-40 51t-45.5 82q-14 30 -24.5 52t-18.5 36.5t-16 21.5t-18 7q-19 0 -36.5 -32.5t-49.5 -97.5
q-23 -45 -44 -74.5t-41.5 -47t-40.5 -24.5t-40 -7q-19 0 -36 6.5t-34.5 24t-37 46.5t-44.5 74h-131z" />
    <glyph glyph-name="uni21AE" unicode="&#x21ae;" horiz-adv-x="1765" 
d="M774 530h-428l123 -118v-148l-319 332v4l319 332v-148l-125 -120h502l143 268h144l-144 -268h430l-123 120v148l320 -332v-4l-320 -332v148l121 118h-499l-142 -266h-143z" />
    <glyph glyph-name="uni21AF" unicode="&#x21af;" horiz-adv-x="1397" 
d="M901 700l-653 -282l258 954l129 -35l-189 -698l652 283l-221 -844l145 86l143 -39l-403 -223l-6 2l-238 395l144 -39l83 -151z" />
    <glyph glyph-name="uni21B0" unicode="&#x21b0;" horiz-adv-x="1130" 
d="M899 0h-133v956h-420l123 -118v-148l-319 332v4l319 332v-148l-125 -120h555v-1090z" />
    <glyph glyph-name="uni21B1" unicode="&#x21b1;" horiz-adv-x="1130" 
d="M702 1090l-122 120v148l319 -332v-4l-319 -332v148l120 118h-417v-956h-133v1090h552z" />
    <glyph glyph-name="uni21B2" unicode="&#x21b2;" horiz-adv-x="1130" 
d="M344 268l125 -121v-147l-319 332v4l319 332v-148l-123 -119h420v957h133v-1090h-555z" />
    <glyph glyph-name="uni21B3" unicode="&#x21b3;" horiz-adv-x="1130" 
d="M150 1358h133v-957h417l-120 119v148l319 -332v-4l-319 -332v147l122 121h-552v1090z" />
    <glyph glyph-name="uni21B4" unicode="&#x21b4;" horiz-adv-x="1739" 
d="M1321 420l121 125h147l-332 -320h-4l-331 320h147l119 -123v420h-957v133h1090v-555z" />
    <glyph glyph-name="carriagereturn" unicode="&#x21b5;" horiz-adv-x="1130" 
d="M344 268l125 -121v-147l-319 332v4l319 332v-148l-123 -119h420v572h133v-705h-555z" />
    <glyph glyph-name="uni21B6" unicode="&#x21b6;" horiz-adv-x="1739" 
d="M1507 305h-133v107q0 94 -19 173t-66 136t-126.5 89t-199.5 32q-118 0 -197 -32t-127 -89t-68 -136t-20 -173v-215l119 122h147l-332 -319h-4l-331 319h147l121 -124v221q0 114 28.5 215.5t93 178t168.5 121t255 44.5t255 -44.5t168 -121t92.5 -178t28.5 -215.5v-111z
" />
    <glyph glyph-name="uni21B7" unicode="&#x21b7;" horiz-adv-x="1739" 
d="M231 416q0 114 28.5 215.5t93 178t168.5 121t255 44.5t255 -44.5t168.5 -121t93 -178t28.5 -215.5v-221l121 124h147l-332 -319h-4l-331 319h147l119 -122v215q0 94 -20 173t-68 136t-127 89t-197 32q-120 0 -199.5 -32t-126.5 -89t-66 -136t-19 -173v-107h-134v111z" />
    <glyph glyph-name="uni21B8" unicode="&#x21b8;" horiz-adv-x="1769" 
d="M1176 80l-822 819l2 -172l-104 -104l8 460l4 4l461 9l-104 -105h-170l819 -817zM231 1366h1307v-133h-1307v133z" />
    <glyph glyph-name="uni21B9" unicode="&#x21b9;" horiz-adv-x="1851" 
d="M1618 936h-1051l123 -119v-147l-319 331v5l319 331v-147l-125 -121h1053v-133zM233 399h1051l-123 121v148l320 -332v-4l-320 -332v147l121 119h-1049v133zM1620 668v-668h-133v668h133zM365 1337v-667h-134v667h134z" />
    <glyph glyph-name="uni21BA" unicode="&#x21ba;" horiz-adv-x="1739" 
d="M532 954q-78 -63 -124 -156t-46 -202q0 -96 36.5 -180.5t99 -147t147 -99t180.5 -36.5t180.5 36.5t147 99t99 147t36.5 180.5q0 97 -36 179t-99 145l-16 16l2 -172l-103 -102l8 458l3 4l460 9l-104 -105l-174 4l24 -24q81 -81 123.5 -186.5t42.5 -227.5
q0 -123 -46.5 -231t-127.5 -189t-189 -127.5t-231 -46.5t-231 46.5t-188.5 127.5t-127.5 189t-47 231q0 137 57 254t154 199z" />
    <glyph glyph-name="uni21BB" unicode="&#x21bb;" horiz-adv-x="1739" 
d="M1296 1047q97 -82 154 -199t57 -254q0 -123 -46.5 -231t-127.5 -189t-189 -127.5t-231 -46.5t-231 46.5t-188.5 127.5t-127.5 189t-47 231q0 122 43 227.5t123 186.5l25 24l-174 -4l-105 105l461 -9l2 -4l8 -458l-102 102l2 172l-16 -16q-63 -63 -99 -145t-36 -179
q0 -96 36 -180.5t99 -147t147 -99t180 -36.5t180.5 36.5t147 99t99 147t36.5 180.5q0 109 -45.5 202t-124.5 156z" />
    <glyph glyph-name="uni21BC" unicode="&#x21bc;" horiz-adv-x="1767" 
d="M1536 530h-1386v70l319 332v-148l-125 -120h1192v-134z" />
    <glyph glyph-name="uni21BD" unicode="&#x21bd;" horiz-adv-x="1767" 
d="M1536 530h-1192l125 -120v-148l-319 332v70h1386v-134z" />
    <glyph glyph-name="uni21BE" unicode="&#x21be;" horiz-adv-x="782" 
d="M231 -12v1386h70l332 -319h-148l-120 123v-1190h-134z" />
    <glyph glyph-name="uni21BF" unicode="&#x21bf;" horiz-adv-x="782" 
d="M418 -12v1190l-121 -123h-147l331 319h70v-1386h-133z" />
    <glyph glyph-name="uni21C0" unicode="&#x21c0;" horiz-adv-x="1767" 
d="M231 664h1190l-123 120v148l320 -332v-70h-1387v134z" />
    <glyph glyph-name="uni21C1" unicode="&#x21c1;" horiz-adv-x="1767" 
d="M231 664h1387v-70l-320 -332v148l123 120h-1190v134z" />
    <glyph glyph-name="uni21C2" unicode="&#x21c2;" horiz-adv-x="782" 
d="M365 1376v-1192l120 125h148l-332 -319h-70v1386h134z" />
    <glyph glyph-name="uni21C3" unicode="&#x21c3;" horiz-adv-x="782" 
d="M551 1376v-1386h-70l-331 319h147l121 -123v1190h133z" />
    <glyph glyph-name="uni21C4" unicode="&#x21c4;" horiz-adv-x="1851" 
d="M233 997h1188l-123 121v148l320 -332v-4l-320 -332v147l121 119h-1186v133zM1618 195h-1188l123 -119v-148l-320 332v4l320 332v-147l-125 -121h1190v-133z" />
    <glyph glyph-name="uni21C5" unicode="&#x21c5;" horiz-adv-x="1800" 
d="M500 -10v1188l-121 -123h-148l332 319h4l332 -319h-147l-119 121v-1186h-133zM1303 1374v-1188l118 123h148l-332 -319h-4l-332 319h148l120 -125v1190h134z" />
    <glyph glyph-name="uni21C6" unicode="&#x21c6;" horiz-adv-x="1851" 
d="M1618 864h-1188l123 -119v-147l-320 332v4l320 332v-148l-125 -121h1190v-133zM233 328h1188l-123 121v147l320 -332v-4l-320 -332v148l121 119h-1186v133z" />
    <glyph glyph-name="uni21C7" unicode="&#x21c7;" horiz-adv-x="1847" 
d="M1616 864h-1188l123 -119v-147l-320 332v4l320 332v-148l-125 -121h1190v-133zM1616 195h-1188l123 -119v-148l-320 332v4l320 332v-147l-125 -121h1190v-133z" />
    <glyph glyph-name="uni21C8" unicode="&#x21c8;" horiz-adv-x="1800" 
d="M500 -10v1188l-121 -123h-148l332 319h4l332 -319h-147l-119 121v-1186h-133zM1169 -10v1188l-120 -123h-148l332 319h4l332 -319h-148l-118 121v-1186h-134z" />
    <glyph glyph-name="uni21C9" unicode="&#x21c9;" horiz-adv-x="1847" 
d="M231 997h1188l-123 121v148l320 -332v-4l-320 -332v147l121 119h-1186v133zM231 328h1188l-123 121v147l320 -332v-4l-320 -332v148l121 119h-1186v133z" />
    <glyph glyph-name="uni21CA" unicode="&#x21ca;" horiz-adv-x="1800" 
d="M633 1374v-1188l119 123h147l-332 -319h-4l-332 319h148l121 -125v1190h133zM1303 1374v-1188l118 123h148l-332 -319h-4l-332 319h148l120 -125v1190h134z" />
    <glyph glyph-name="uni21CB" unicode="&#x21cb;" horiz-adv-x="1851" 
d="M231 813l320 332v-148l-125 -120h1194v-134h-1389v70zM1620 381l-320 -332v148l123 120h-1192v134h1389v-70z" />
    <glyph glyph-name="uni21CC" unicode="&#x21cc;" horiz-adv-x="1851" 
d="M231 743v134h1192l-123 120v148l320 -332v-70h-1389zM1620 451v-134h-1194l125 -120v-148l-320 332v70h1389z" />
    <glyph glyph-name="uni21CD" unicode="&#x21cd;" horiz-adv-x="1767" 
d="M856 356h-342l72 -71v-148l-436 459v4l436 457v-148l-72 -71h598l51 94h144l-52 -94h281v-133h-352l-115 -216h467v-133h-537l-49 -92h-143zM281 596l104 -107h541l114 216h-657l-102 -105v-4z" />
    <glyph glyph-name="uni21CE" unicode="&#x21ce;" horiz-adv-x="1767" 
d="M682 356h-168l72 -71v-148l-436 459v4l436 457v-148l-72 -71h424l51 94h144l-52 -94h168l-69 71v148l436 -457v-4l-436 -459v148l69 71h-424l-49 -92h-143zM1485 600l-105 105h-370l-115 -216h485l105 107v4zM385 489h367l114 216h-483l-102 -105v-4z" />
    <glyph glyph-name="uni21CF" unicode="&#x21cf;" horiz-adv-x="1767" 
d="M231 489h349l114 216h-463v133h535l51 94h144l-52 -94h342l-69 71v148l436 -457v-4l-436 -459v148l69 71h-598l-49 -92h-143l49 92h-279v133zM838 705l-115 -216h659l105 107v4l-105 105h-544z" />
    <glyph glyph-name="arrowdblleft" unicode="&#x21d0;" horiz-adv-x="1767" 
d="M281 596l104 -107h1151v-133h-1022l72 -71v-148l-436 459v4l436 457v-148l-72 -71h1022v-133h-1153l-102 -105v-4z" />
    <glyph glyph-name="arrowdblup" unicode="&#x21d1;" horiz-adv-x="1219" 
d="M608 1245l-106 -104v-1151h-133v1022l-72 -72h-147l458 436h4l457 -436h-147l-72 72v-1022h-133v1153l-105 102h-4z" />
    <glyph glyph-name="arrowdblright" unicode="&#x21d2;" horiz-adv-x="1767" 
d="M231 489h1151l105 107v4l-105 105h-1151v133h1020l-69 71v148l436 -457v-4l-436 -459v148l69 71h-1020v133z" />
    <glyph glyph-name="arrowdbldown" unicode="&#x21d3;" horiz-adv-x="1219" 
d="M612 121l105 102v1153h133v-1022l72 72h147l-457 -436h-4l-458 436h147l72 -72v1022h133v-1151l106 -104h4z" />
    <glyph glyph-name="arrowdblboth" unicode="&#x21d4;" horiz-adv-x="1767" 
d="M514 838h655l-69 71v148l436 -457v-4l-436 -459v148l69 71h-655l72 -71v-148l-436 459v4l436 457v-148zM1405 600l-105 105h-917l-102 -105v-4l104 -107h915l105 107v4z" />
    <glyph glyph-name="uni21D5" unicode="&#x21d5;" horiz-adv-x="1219" 
d="M850 1012v-656l72 70h147l-457 -436h-4l-458 436h147l72 -70v656l-72 -72h-147l458 436h4l457 -436h-147zM612 121l105 104v918l-105 102h-4l-106 -104v-916l106 -104h4z" />
    <glyph glyph-name="uni21D6" unicode="&#x21d6;" horiz-adv-x="1546" 
d="M340 1079l-2 -149l813 -813l-94 -94l-723 722v-102l-103 -104l15 632l4 5l631 14l-105 -105h-100l721 -723l-94 -94l-816 815l-145 -2z" />
    <glyph glyph-name="uni21D7" unicode="&#x21d7;" horiz-adv-x="1546" 
d="M1204 1081l-145 2l-815 -815l-94 94l720 723h-100l-104 105l630 -14l4 -5l15 -632l-103 104v102l-723 -722l-94 94l813 813l-2 149z" />
    <glyph glyph-name="uni21D8" unicode="&#x21d8;" horiz-adv-x="1546" 
d="M1208 135l2 146l-815 815l94 94l723 -721v100l105 105l-14 -631l-5 -4l-632 -14l104 102h102l-722 723l94 94l813 -813l149 2z" />
    <glyph glyph-name="uni21D9" unicode="&#x21d9;" horiz-adv-x="1546" 
d="M342 131l150 -2l813 813l94 -94l-723 -723h102l105 -102l-633 14l-4 4l-15 631l105 -105v-100l723 721l94 -94l-815 -815l2 -146z" />
    <glyph glyph-name="uni21DA" unicode="&#x21da;" horiz-adv-x="1767" 
d="M565 940h971v-133h-1081l-121 -143h1202v-134l-1210 11l129 -154h1081v-133h-971l62 -72v-147l-477 561v4l477 559v-147z" />
    <glyph glyph-name="uni21DB" unicode="&#x21db;" horiz-adv-x="1767" 
d="M1200 254h-969v133h1082l129 154l-1211 -11v134h1203l-121 143h-1082v133h969l-59 72v147l477 -559v-4l-477 -561v147z" />
    <glyph glyph-name="uni21DC" unicode="&#x21dc;" horiz-adv-x="1767" 
d="M1536 530h-211l-70 105l-129 -268l-129 268l-129 -268l-129 268l-129 -268l-110 163h-154l123 -118v-148l-319 332v4l319 332v-148l-125 -120h197l69 -103l129 268l129 -247l129 247l129 -247l129 247l107 -165h174v-134z" />
    <glyph glyph-name="uni21DD" unicode="&#x21dd;" horiz-adv-x="1767" 
d="M231 664h175l106 165l129 -247l129 247l129 -247l129 247l129 -268l70 103h194l-123 120v148l320 -332v-4l-320 -332v148l121 118h-151l-111 -163l-129 268l-129 -268l-129 268l-129 -268l-129 268l-70 -105h-211v134z" />
    <glyph glyph-name="uni21DE" unicode="&#x21de;" horiz-adv-x="967" 
d="M416 -12v452h-266v133h266v144h-266v133h266v326l-119 -121h-147l331 319h4l332 -319h-147l-121 123v-328h268v-133h-268v-144h268v-133h-268v-452h-133z" />
    <glyph glyph-name="uni21DF" unicode="&#x21df;" horiz-adv-x="967" 
d="M150 647h266v144h-266v133h266v452h133v-452h268v-133h-268v-144h268v-133h-268v-330l121 125h147l-332 -319h-4l-331 319h147l119 -123v328h-266v133z" />
    <glyph glyph-name="uni21E0" unicode="&#x21e0;" horiz-adv-x="1767" 
d="M528 530h-182l123 -118v-148l-319 332v4l319 332v-148l-125 -120h184v-134zM1536 530h-193v134h193v-134zM1200 530h-192v134h192v-134zM864 530h-192v134h192v-134z" />
    <glyph glyph-name="uni21E1" unicode="&#x21e1;" horiz-adv-x="967" 
d="M416 997v181l-119 -121h-147l331 319h4l332 -319h-147l-121 123v-183h-133zM416 -10v192h133v-192h-133zM416 326v192h133v-192h-133zM416 662v192h133v-192h-133z" />
    <glyph glyph-name="uni21E2" unicode="&#x21e2;" horiz-adv-x="1767" 
d="M1239 664h182l-123 120v148l320 -332v-4l-320 -332v148l121 118h-180v134zM231 664h193v-134h-193v134zM567 664h193v-134h-193v134zM903 664h193v-134h-193v134z" />
    <glyph glyph-name="uni21E3" unicode="&#x21e3;" horiz-adv-x="967" 
d="M551 369v-183l119 123h147l-332 -319h-4l-331 319h147l121 -125v185h133zM551 1376v-192h-133v192h133zM551 1040v-192h-133v192h133zM551 705v-193h-133v193h133z" />
    <glyph glyph-name="uni21E4" unicode="&#x21e4;" horiz-adv-x="1849" 
d="M1618 530h-1051l123 -118v-148l-319 332v4l319 332v-148l-125 -120h1053v-134zM365 932v-668h-134v668h134z" />
    <glyph glyph-name="uni21E5" unicode="&#x21e5;" horiz-adv-x="1849" 
d="M231 664h1051l-123 120v148l320 -332v-4l-320 -332v148l121 118h-1049v134zM1618 932v-668h-133v668h133z" />
    <glyph glyph-name="uni21E6" unicode="&#x21e6;" horiz-adv-x="1700" 
d="M1468 369h-938v-310l-380 510l380 510v-311h938v-399zM1423 725h-938v219l-280 -375v-2l280 -372v217h938v313z" />
    <glyph glyph-name="uni21E7" unicode="&#x21e7;" horiz-adv-x="1319" 
d="M459 -10v938h-309l509 381l510 -381h-311v-938h-399zM815 35v938h219l-375 280h-2l-372 -280h217v-938h313z" />
    <glyph glyph-name="uni21E8" unicode="&#x21e8;" horiz-adv-x="1700" 
d="M231 768h938v311l381 -510l-381 -510v310h-938v399zM276 412h938v-217l281 372v2l-281 375v-219h-938v-313z" />
    <glyph glyph-name="uni21E9" unicode="&#x21e9;" horiz-adv-x="1319" 
d="M860 1309v-938h309l-510 -381l-509 381h311v938h399zM504 1264v-938h-219l374 -281h3l372 281h-217v938h-313z" />
    <glyph glyph-name="uni21EA" unicode="&#x21ea;" horiz-adv-x="1319" 
d="M459 430v498h-309l509 381l510 -381h-311v-498h-399zM858 336v-346h-399v346h399zM815 475v498h219l-375 280h-2l-372 -280h217v-498h313zM502 291v-256h313v256h-313z" />
    <glyph glyph-name="uni21EB" unicode="&#x21eb;" horiz-adv-x="1319" 
d="M213 -10v182h246v756h-309l509 381l510 -381h-311v-756h246v-182h-891zM1061 35v92h-246v846h219l-375 280h-2l-372 -280h217v-846h-246v-92h805z" />
    <glyph glyph-name="uni21EC" unicode="&#x21ec;" horiz-adv-x="1319" 
d="M213 -10v182h246v756h-309l509 381l510 -381h-311v-756h246v-182h-891zM426 1079l-141 -106h217v-846h-246v-92h805v92h-246v846h219l-143 106h-465zM485 1124h346l-172 129h-2z" />
    <glyph glyph-name="uni21ED" unicode="&#x21ed;" horiz-adv-x="1319" 
d="M213 -10v182h246v756h-309l509 381l510 -381h-311v-756h246v-182h-891zM637 35v1202l-352 -264h217v-846h-246v-92h381zM682 1237v-1202h379v92h-246v846h219z" />
    <glyph glyph-name="uni21EE" unicode="&#x21ee;" horiz-adv-x="1319" 
d="M1034 973l-375 280h-2l-372 -280h161l213 160l213 -160h162zM815 35v762h219l-375 280h-2l-372 -280h217v-762h313zM1169 752h-311v-762h-399v762h-309l235 176h-235l509 381l510 -381h-237z" />
    <glyph glyph-name="uni21EF" unicode="&#x21ef;" horiz-adv-x="1319" 
d="M1034 797l-375 280h-2l-372 -280h217v-670h-246v-92h805v92h-246v670h219zM1034 973l-375 280h-2l-372 -280h161l213 160l213 -160h162zM858 172h246v-182h-891v182h246v580h-309l235 176h-235l509 381l510 -381h-237l237 -176h-311v-580z" />
    <glyph glyph-name="uni21F0" unicode="&#x21f0;" horiz-adv-x="1700" 
d="M231 1096h183v-246h755v309l381 -510l-381 -510v312h-755v-246h-183v891zM276 248h93v246h845v-220l281 375v2l-281 373v-217h-845v246h-93v-805z" />
    <glyph glyph-name="uni21F1" unicode="&#x21f1;" horiz-adv-x="1769" 
d="M1538 1366v-133h-1173v-1233h-134v1366h1307zM1425 80l-800 799l2 -172l-105 -105l8 461l5 4l460 8l-104 -104h-170l799 -797z" />
    <glyph glyph-name="uni21F2" unicode="&#x21f2;" horiz-adv-x="1769" 
d="M1538 0h-1307v133h1174v1233h133v-1366zM344 1286l799 -801v174l104 105l-8 -461l-4 -4l-461 -8l105 104l168 -2l-797 799z" />
    <glyph glyph-name="uni21F3" unicode="&#x21f3;" horiz-adv-x="1319" 
d="M858 371h309l-510 -381l-510 381h312v557h-309l509 381l510 -381h-311v-557zM815 973h219l-375 280h-2l-372 -280h217v-647h-219l374 -281h2l373 281h-217v647z" />
    <glyph glyph-name="uni21F4" unicode="&#x21f4;" horiz-adv-x="1767" 
d="M231 664h218q10 54 38.5 100.5t69.5 80.5t93 53.5t110 19.5q57 0 109 -19.5t93.5 -53.5t70 -80.5t40.5 -100.5h348l-123 120v148l320 -332v-4l-320 -332v148l121 118h-348q-12 -54 -40.5 -99.5t-70 -78.5t-92.5 -52t-108 -19q-58 0 -109.5 19t-92.5 52t-69.5 78.5
t-39.5 99.5h-218v134zM760 793q-32 0 -60.5 -10t-52.5 -27t-41.5 -41t-27.5 -51h364q-10 27 -28 51t-41.5 41t-52.5 27t-60 10zM760 406q62 0 111 34.5t71 89.5h-362q10 -27 27.5 -50t41 -39.5t51.5 -25.5t60 -9z" />
    <glyph glyph-name="uni21F5" unicode="&#x21f5;" horiz-adv-x="1638" 
d="M549 1376v-1192l121 125h147l-332 -319h-4l-331 319h147l119 -123v1190h133zM1087 -12v1188l-118 -121h-148l332 319h4l332 -319h-148l-120 123v-1190h-134z" />
    <glyph glyph-name="uni21F6" unicode="&#x21f6;" horiz-adv-x="1847" 
d="M231 1212h1155l-90 60v147l320 -270v-4l-320 -271v148l88 57h-1153v133zM231 664h1155l-90 59v147l320 -270v-4l-320 -270v147l88 57h-1153v134zM231 113h1155l-90 59v147l320 -270v-4l-320 -270v147l88 58h-1153v133z" />
    <glyph glyph-name="uni21F7" unicode="&#x21f7;" horiz-adv-x="1767" 
d="M868 264v266h-522l123 -118v-148l-319 332v4l319 332v-148l-125 -120h524v268h133v-268h535v-134h-535v-266h-133z" />
    <glyph glyph-name="uni21F8" unicode="&#x21f8;" horiz-adv-x="1767" 
d="M150 666h534v266h133v-266h520l-120 118v148l319 -332v-4l-319 -332v148l122 120h-522v-268h-133v268h-534v134z" />
    <glyph glyph-name="uni21F9" unicode="&#x21f9;" horiz-adv-x="1765" 
d="M948 932v-268h471l-123 120v148l320 -332v-4l-320 -332v148l121 118h-469v-266h-133v266h-469l123 -118v-148l-319 332v4l319 332v-148l-125 -120h471v268h133z" />
    <glyph glyph-name="uni21FA" unicode="&#x21fa;" horiz-adv-x="1767" 
d="M735 264v266h-389l123 -118v-148l-319 332v4l319 332v-148l-125 -120h391v268h133v-268h133v268h134v-268h401v-134h-401v-266h-134v266h-133v-266h-133z" />
    <glyph glyph-name="uni21FB" unicode="&#x21fb;" horiz-adv-x="1767" 
d="M231 666h402v266h133v-266h133v266h133v-266h387l-121 118v148l320 -332v-4l-320 -332v148l123 120h-389v-268h-133v268h-133v-268h-133v268h-402v134z" />
    <glyph glyph-name="uni21FC" unicode="&#x21fc;" horiz-adv-x="1765" 
d="M1083 932v-268h336l-123 120v148l320 -332v-4l-320 -332v148l121 118h-334v-266h-133v266h-133v-266h-133v266h-338l123 -118v-148l-319 332v4l319 332v-148l-125 -120h340v268h133v-268h133v268h133z" />
    <glyph glyph-name="uni21FD" unicode="&#x21fd;" horiz-adv-x="1767" 
d="M469 664h1067v-134h-1067v-266l-319 332v4l319 332v-268zM403 766l-159 -166v-4l159 -166v336z" />
    <glyph glyph-name="uni21FE" unicode="&#x21fe;" horiz-adv-x="1767" 
d="M231 666h1067v266l320 -332v-4l-320 -332v268h-1067v134zM1364 430l160 166v4l-160 166v-336z" />
    <glyph glyph-name="uni21FF" unicode="&#x21ff;" horiz-adv-x="1686" 
d="M1217 530h-748v-266l-319 332v4l319 332v-268h748v268l319 -332v-4l-319 -332v266zM1282 430l160 166v4l-160 166v-336zM403 766l-159 -166v-4l159 -166v336z" />
    <glyph glyph-name="universal" unicode="&#x2200;" horiz-adv-x="1736" 
d="M954 0h-174l-550 1434h187l143 -402h608l152 402h186zM616 881l223 -611q7 -17 12.5 -41t10.5 -55h4q5 33 11 57t11 39l225 611h-497z" />
    <glyph glyph-name="uni2201" unicode="&#x2201;" horiz-adv-x="1122" 
d="M572 107q52 0 87 21.5t56 62.5t29.5 100t8.5 135h139q0 -106 -20 -189.5t-60 -141.5t-100.5 -88.5t-141.5 -30.5q-86 0 -150 27t-106 85t-63 147.5t-21 214.5v534q0 110 21 197.5t63 149t106 94.5t150 33q84 0 145 -30.5t100.5 -88.5t58 -141.5t18.5 -189.5h-139
q0 76 -10 135t-32 100t-58 62.5t-88 21.5t-88.5 -21t-59.5 -64.5t-33.5 -112t-10.5 -162.5v-500q0 -189 47.5 -274.5t151.5 -85.5z" />
    </font>
</defs>
</svg>
